– Le ragazze del Pandora.s Box-Stage Mother (2020) ITA-ENG Ac3 5.1 BDRip 1080p H264 [ArMor] – – Torrent dowload

Ecco a voi il torrent – Le ragazze del Pandora.s Box-Stage Mother (2020) ITA-ENG Ac3 5.1 BDRip 1080p H264 [ArMor] – proveniente dagli archivi di [Torrent]

Lo staff di Cultura digitale al fine di promuovere la cultura condivide i contenuti presenti sul sito il corsaro nero.

Nome del Torrent: – Le ragazze del Pandora.s Box-Stage Mother (2020) ITA-ENG Ac3 5.1 BDRip 1080p H264 [ArMor] –

Descrizione del torrent: [center]Clicca qua per ingrandire questa immagineRegista: Thom FitzgeraldGenere: Commedia, DrammaticoAnno: 2020Paese: CanadaDurata: 93 minClicca qua per ingrandire questa immagineJacki Weaver, Lucy Liu, Adrian Grenier, Calem MacDonald, Mya Taylor, Anthony Skordi, Allister MacDonald, Eldon Thiele, Jackie Beat, Sofia Banzhaf, Hugh Thompson, Lenore ZannClicca qua per ingrandire questa immagineLe ragazze del Pandora's Box, film diretto da Thom Fitzgerald, racconta la storia di Maybelline (Jacki Weaver), la direttrice del coro di una chiesa conservatrice in Texas, che si ritrova a fare i conti con una stramba eredità. Quando suo figlio muore, la donna eredita il suo Drad Queen Club. Nonostante la sorpresa iniziale, Maybelline accetta di prendere in mano le redini del locale e di salvarlo da un fallimento certo, con grande stupore della sua famiglia e dei suoi conoscenti.Clicca qua per ingrandire questa immagineA conservative church choir director inherits her late son's San Francisco drag club. Clicca qua per ingrandire questa immagineClicca qua per ingrandire questa immagineGeneralUnique ID                                : 73093670646354397741562546361089642640 (0x36FD54331278B0637DF1F65CAB03D090)Complete name                            : Le ragazze del Pandora.s Box-Stage Mother (2020) ITA-ENG Ac3 5.1 BDRip 1080p H264 [ArMor].mkvFormat                                   : MatroskaFormat version                           : Version 4File size                                : 2.61 GiBDuration                                 : 1 h 33 minOverall bit rate                         : 3 995 kb/sEncoded date                             : UTC 2020-10-31 05:36:52Writing application                      : HandBrake 1.3.3 2020061300Writing library                          : Lavf58.29.100ErrorDetectionType                       : Per level 1VideoID                                       : 1Format                                   : AVCFormat/Info                              : Advanced Video CodecFormat profile                           : [email protected] settings                          : CABAC / 4 Ref FramesFormat settings, CABAC                   : YesFormat settings, Reference frames        : 4 framesCodec ID                                 : V_MPEG4/ISO/AVCDuration                                 : 1 h 33 minBit rate                                 : 3 019 kb/sWidth                                    : 1 920 pixelsHeight                                   : 804 pixelsDisplay aspect ratio                     : 2.40:1Frame rate mode                          : ConstantFrame rate                               : 24.000 FPSColor space                              : YUVChroma subsampling                       : 4:2:0Bit depth                                : 8 bitsScan type                                : ProgressiveBits/(Pixel*Frame)                       : 0.081Stream size                              : 1.98 GiB (76%)Writing library                          : x264 core 157 r2935 545de2fEncoding settings                        : cabac=1 / ref=2 / deblock=1:0:0 / analyse=0x1:0x111 / me=hex / subme=6 / psy=1 / psy_rd=1.00:0.00 / mixed_ref=1 / me_range=16 / chroma_me=1 / trellis=1 / 8x8dct=0 / cqm=0 / deadzone=21,11 / fast_pskip=1 / chroma_qp_offset=-2 / threads=18 / lookahead_threads=3 / sliced_threads=0 / nr=0 / decimate=1 / interlaced=0 / bluray_compat=0 / constrained_intra=0 / bframes=3 / b_pyramid=2 / b_adapt=1 / b_bias=0 / direct=1 / weightb=1 / open_gop=0 / weightp=1 / keyint=240 / keyint_min=24 / scenecut=40 / intra_refresh=0 / rc_lookahead=30 / rc=crf / mbtree=1 / crf=20.0 / qcomp=0.60 / qpmin=0 / qpmax=69 / qpstep=4 / vbv_maxrate=20000 / vbv_bufsize=25000 / crf_max=0.0 / nal_hrd=none / filler=0 / ip_ratio=1.40 / aq=1:1.00Default                                  : YesForced                                   : NoColor range                              : LimitedColor primaries                          : BT.709Transfer characteristics                 : BT.709Matrix coefficients                      : BT.709Audio #1ID                                       : 2Format                                   : AC-3Format/Info                              : Audio Coding 3Commercial name                          : Dolby DigitalCodec ID                                 : A_AC3Duration                                 : 1 h 33 minBit rate mode                            : ConstantBit rate                                 : 448 kb/sChannel(s)                               : 6 channelsChannel layout                           : L R C LFE Ls RsSampling rate                            : 48.0 kHzFrame rate                               : 31.250 FPS (1536 SPF)Compression mode                         : LossyStream size                              : 300 MiB (11%)Title                                    : SurroundLanguage                                 : ItalianService kind                             : Complete MainDefault                                  : YesForced                                   : NoAudio #2ID                                       : 3Format                                   : AC-3Format/Info                              : Audio Coding 3Commercial name                          : Dolby DigitalCodec ID                                 : A_AC3Duration                                 : 1 h 33 minBit rate mode                            : ConstantBit rate                                 : 448 kb/sChannel(s)                               : 6 channelsChannel layout                           : L R C LFE Ls RsSampling rate                            : 48.0 kHzFrame rate                               : 31.250 FPS (1536 SPF)Compression mode                         : LossyStream size                              : 300 MiB (11%)Title                                    : SurroundLanguage                                 : EnglishService kind                             : Complete MainDefault                                  : NoForced                                   : NoMenu00:00:00.000                             : :Chapter 100:07:12.792                             : :Chapter 200:15:21.792                             : :Chapter 300:23:06.458                             : :Chapter 400:31:03.792                             : :Chapter 500:38:01.250                             : :Chapter 600:45:52.500                             : :Chapter 700:54:52.750                             : :Chapter 801:02:23.042                             : :Chapter 901:11:05.125                             : :Chapter 1001:18:45.167                             : :Chapter 1101:28:08.833                             : :Chapter 12[/center]Clicca qua per ingrandire questa immagine

Dimensione:2.63 GB

Categoria: BDRip

ISCRIVETEVI AL FORUM

Presto ci saranno molte novità, registratevi gratuitamente al forum

Ricordiamo a tutti che su Cultura Digitale non sono presenti nessun file, questo torrent è di proprietà del Corsaro nero. pubblicato sul loro sito al seguente indirizzo: – Le ragazze del Pandora.s Box-Stage Mother (2020) ITA-ENG Ac3 5.1 BDRip 1080p H264 [ArMor] –

COLLEGAMENTO AL TORRENT

Importante: è un link con magnet, si dovrebbe aprire da solo. Se vi esce errore 404 nel vostro computer non è installato un programma per torrent o l’estensione che fa aprire i file magnet.

 Copiate questo link
magnet:?xt=urn:btih:6071f7acf39388ddbc5a989dacea9f1488a70a44&dn=Le+ragazze+del+Pandora.s+Box-Stage+Mother+%282020%29+ITA-ENG+Ac3+5.1+BDRip+1080p+H264+%5BArMor%5D&tr=udp%3A%2F%2Ftracker.coppersurfer.tk%3A6969%2Fannounce

Per firefox usare questa estensione – Per Chrome usare questa estensione
Oppure usare Torxh web browser

Se i link risultassero non raggiungibili o bloccati a livello DNS

Seguite la guida Su Questo Articolo : GUIDA COME CAMBIARE DNS