Legends.of.Tomorrow.S05E05.A.Head.of.Her.Time.1080p.WEBMux.ITA.ENG.x264-BlackBit.mkv – Torrent download

Ecco a voi il torrent Legends.of.Tomorrow.S05E05.A.Head.of.Her.Time.1080p.WEBMux.ITA.ENG.x264-BlackBit.mkv - proveniente dagli archivi di Torrent

Lo staff di Cultura digitale al fine di promuovere la cultura condivide i contenuti presenti sul sito il corsaro nero.

Nome del Torrent: Legends.of.Tomorrow.S05E05.A.Head.of.Her.Time.1080p.WEBMux.ITA.ENG.x264-BlackBit.mkv -

Descrizione del torrent: Legends of Tomorrow - Stagione 5itolo originale DC's Legends of TomorrowPaese Stati Uniti d'AmericaAnno 2016 – in produzioneFormato serie TVGenere avventura, azione, drammatico, fantascienza, supereroiStagioni 5Episodi 82Durata 42 min (episodio)Lingua originale ingleseRapporto 16:9L'inizio della stagione parte con il crossover "Crisi delle terre infinite", già cominciato negli episodi di Supergirl, The Flash, Batwoman e Arrow. Appare nuovamente Black Lightning, in quanto gli universi di Arrow, Flash e Batwoman (Terra 1), quello di Supergirl (Terra 3 e quello di Black Lightning (Terra 22) vengono uniti in un unico universo, che viene denominato Terra Prime, grazie al sacrificio di Oliver Queen. Sempre in questo episodio, viene sconfitto l'Anti-Monitor e creato un nuovo multiverso (vengono mostrate scene da altri telefilm basati su personaggi della DC, tra cui Titans e Doom Patrol, forse a suggerire futuri crossover tra le serie). Cambiamenti nel multiverso mostrano John Diggle e Layla con entrambi i figli (John Jr, creato dopo Flashpoint e Sara Diggle, nata precedentemente ma scomparsa dopo Flashpoint in quanto sostituita dal fratello dal paradosso creato da Barry), e Lois e Clark con figli. Flash, Superman, Supergirl, White Canary. Batwoman e Black Lightning si riuniscono per celebrare la scomparsa di Green Arrow in un magazzino segreto dei laboratori Star, che Barry suggerisce di usare come base per crisi future, svelando anche un tavolo con poltrone contrassegnate dai simboli degli eroi. Ma la prima seduta di questa Justice League viene interrotta dai versi di un animale (viene mostrata una gabbia aperta con una buccia di banana contrassegnata dal nome Gleech, mentre viene poi rivelato il palazzo dove si trovano, la Hall of Justice, chiari omaggi alla serie Superamici di Hanna e Barbera).[spoiler[/spoiler[spoilerGeneralUnique ID : 46002895817593429203743347376932339230 (0x229BD5E0996A0C329CD1014822313E1E)Complete name : C:UsersAdministratorVideosLegends Of Tomorrow S05Legends.of.Tomorrow.S05E01.Crisis.on.Infinite.Earths.Part.5.1080p.WEBMux.ITA.ENG.x264-BlackBit.mkvFormat : MatroskaFormat version : Version 4File size : 2.89 GiBDuration : 42 min 19 sOverall bit rate : 9 770 kb/sEncoded date : UTC 2020-05-23 01:07:34Writing application : mkvmerge v46.0.0 ('No Deeper Escape' 64-bitWriting library : libebml v1.3.10 + libmatroska v1.5.2VideoID : 1Format : AVCFormat/Info : Advanced Video CodecFormat profile : [email protected] settings : CABAC / 4 Ref FramesFormat settings, CABAC : YesFormat settings, Reference : 4 framesCodec ID : V_MPEG4/ISO/AVCDuration : 42 min 19 sBit rate mode : ConstantBit rate : 8 935 kb/sNominal bit rate : 10 000 kb/sWidth : 1 920 pixelsHeight : 1 080 pixelsDisplay aspect ratio : 16:9Frame rate mode : ConstantFrame rate : 23.976 (24000/1001) FPSColor space : YUVChroma subsampling : 4:2:0Bit depth : 8 bitsScan type : ProgressiveBits/(Pixel*Frame) : 0.180Stream size : 2.64 GiB (91%)Default : YesForced : YesColor range : LimitedColor primaries : BT.709Transfer characteristics : BT.709Matrix coefficients : BT.709Audio #1ID : 2Format : AC-3Format/Info : Audio Coding 3Commercial name : Dolby DigitalCodec ID : A_AC3Duration : 42 min 19 sBit rate mode : ConstantBit rate : 192 kb/sChannel(s) : 2 channelsChannel layout : L RSampling rate : 48.0 kHzFrame rate : 31.250 FPS (1536 SPF)Compression mode : LossyStream size : 58.1 MiB (2%)Language : ItalianService kind : Complete MainDefault : YesForced : YesAudio #2ID : 3Format : E-AC-3Format/Info : Enhanced AC-3Commercial name : Dolby Digital PlusCodec ID : A_EAC3Duration : 42 min 19 sBit rate mode : ConstantBit rate : 640 kb/sChannel(s) : 6 channelsChannel layout : L R C LFE Ls RsSampling rate : 48.0 kHzFrame rate : 31.250 FPS (1536 SPF)Compression mode : LossyStream size : 194 MiB (7%)Language : EnglishService kind : Complete MainDefault : NoForced : NoText #1ID : 4Format : UTF-8Codec ID : S_TEXT/UTF8Codec ID/Info : UTF-8 Plain TextDuration : 54 s 600 msBit rate : 13 b/sCount of elements : 6Stream size : 89.0 Bytes (0%)Language : ItalianDefault : YesForced : YesText #2ID : 5Format : UTF-8Codec ID : S_TEXT/UTF8Codec ID/Info : UTF-8 Plain TextDuration : 41 min 47 sBit rate : 75 b/sCount of elements : 715Stream size : 23.3 KiB (0%)Language : ItalianDefault : NoForced : NoText #3ID : 6Format : UTF-8Codec ID : S_TEXT/UTF8Codec ID/Info : UTF-8 Plain TextDuration : 42 min 11 sBit rate : 68 b/sCount of elements : 725Stream size : 21.3 KiB (0%)Language : EnglishDefault : NoForced : NoText #4ID : 7Format : UTF-8Codec ID : S_TEXT/UTF8Codec ID/Info : UTF-8 Plain TextDuration : 42 min 11 sBit rate : 75 b/sCount of elements : 871Stream size : 23.3 KiB (0%)Title : SDHLanguage : EnglishDefault : NoForced : No[/spoiler

Dimensione: 3.02 GB

Categoria: SerieTv

ISCRIVETEVI AL FORUM

Presto ci saranno molte novità, registratevi gratuitamente al forum

Ricordiamo a tutti che su Cultura Digitale non sono presenti nessun file, questo torrent è di proprietà del Corsaro nero. pubblicato sul loro sito al seguente indirizzo: Legends.of.Tomorrow.S05E05.A.Head.of.Her.Time.1080p.WEBMux.ITA.ENG.x264-BlackBit.mkv -

COLLEGAMENTO AL TORRENT

Importante: è un link con magnet, si dovrebbe aprire da solo. Se vi esce errore 404 nel vostro computer non è installato un programma per torrent o l’estensione che fa aprire i file magnet.

 Copiate questo link
magnet:?xt=urn:btih:cd8292d895b192a345564453ef79e67a9a3f98a6&dn=Legends.of.Tomorrow.S05E05.A.Head.of.Her.Time.1080p.WEBMux.ITA.ENG.x264-BlackBit.mkv&tr=udp%3A%2F%2Ftracker.coppersurfer.tk%3A6969%2Fannounce

Per firefox usare questa estensione – Per Chrome usare questa estensione
Oppure usare Torxh web browser

Se i link risultassero non raggiungibili o bloccati a livello DNS

Seguite la guida Su Questo Articolo : GUIDA COME CAMBIARE DNS