London Fields (2018).720p.H264.ita.eng.Ac3-5.1.sub.ita.eng-MIRCrew – Torrent download

Ecco a voi il torrent London Fields (2018).720p.H264.ita.eng.Ac3-5.1.sub.ita.eng-MIRCrew - proveniente dagli archivi di Torrent

Lo staff di Cultura digitale al fine di promuovere la cultura condivide i contenuti presenti sul sito il corsaro nero.

Nome del Torrent: London Fields (2018).720p.H264.ita.eng.Ac3-5.1.sub.ita.eng-MIRCrew -

Descrizione del torrent: London Fields 2018.720p.H264.ita.eng.Ac3-5.1.sub.ita.eng-MIRCrewClicca qua per ingrandire questa immagineNO FOUND ONLY ORIGINAL RELEASEMy release is always in double track audio italian and Original audiofor select it use VLC or dvd player homenot use wmp London Fields 2018Quality MIRCrew on HD 720p da 2,0 gbClicca qua per ingrandire questa immagineClicca qua per ingrandire questa immagine  Regista: Mathew CullenGenere: ThrillerAnno: 2018Paese: USAAmber Heard, Cara Delevingne, Theo James, Billy Bob Thornton, Jaimie Alexander, Jim Sturgess, Johnny Depp, Jason Isaacs, Lily ColeUn romanziere americano che arriva in città e che combatte da anni col blocco dello scrittore. Malato in modo terminale, scopre finalmente una storia che merita di essere scritta: quella di Nicola Six una affascinante medium che indaga sul proprio omicidio di cui ha avuto una premonizione.Clairvoyant femme fatale Nicola Six has been living with a dark premonition of her impending death by murder. She begins a tangled love affair with three uniquely different men: one of whom she knows will be her murderer. Clicca qua per ingrandire questa immagine   Clicca qua per ingrandire questa immagineClicca qua per ingrandire questa immagineClicca qua per ingrandire questa immagine Clicca qua per ingrandire questa immagine Clicca qua per ingrandire questa immagine Clicca qua per ingrandire questa immagine Clicca qua per ingrandire questa immagineGeneralComplete name                            : London Fields (201.720p.H264.ita.eng.Ac3 5.1.sub.ita.eng-MIRCrewLondon Fields (201.720p.H264.ita.eng.Ac3 5.1.sub.ita.eng-MIRCrew.mkvFormat                                   : MatroskaFormat version                           : Version 2File size                                : 2.09 GiBDuration                                 : 1h 47mnOverall bit rate                         : 2 774 KbpsMovie name                               : robbyrsEncoded date                             : UTC 2019-10-01 15:53:58Writing application                      : Lavf54.63.100Writing library                          : Lavf54.63.100COMMENT                                  : robbyrsCOPYRIGHT                                : robbyrsVideoID                                       : 1Format                                   : AVCFormat/Info                              : Advanced Video CodecFormat profile                           : [email protected] settings, CABAC                   : YesFormat settings, ReFrames                : 2 framesCodec ID                                 : V_MPEG4/ISO/AVCDuration                                 : 1h 47mnBit rate                                 : 1 900 KbpsWidth                                    : 1 280 pixelsHeight                                   : 528 pixelsDisplay aspect ratio                     : 2.40:1Frame rate mode                          : VariableFrame rate                               : 23.976 fpsColor space                              : YUVChroma subsampling                       : 4:2:0Bit depth                                : 8 bitsScan type                                : ProgressiveBits/(Pixel*Frame)                       : 0.117Stream size                              : 1.37 GiB (66%)Writing library                          : x264 core 130 r2273Encoding settings                        : cabac=1 / ref=2 / deblock=1:0:0 / analyse=0x1:0x131 / me=hex / subme=7 / psy=1 / psy_rd=1.00:0.00 / mixed_ref=0 / me_range=16 / chroma_me=1 / trellis=1 / 8x8dct=0 / cqm=0 / deadzone=21,11 / fast_pskip=1 / chroma_qp_offset=-2 / threads=9 / lookahead_threads=1 / sliced_threads=0 / nr=0 / decimate=1 / interlaced=0 / bluray_compat=0 / constrained_intra=0 / bframes=3 / b_pyramid=0 / b_adapt=1 / b_bias=0 / direct=3 / weightb=1 / open_gop=0 / weightp=2 / keyint=230 / keyint_min=23 / scenecut=40 / intra_refresh=0 / rc_lookahead=40 / rc=abr / mbtree=1 / bitrate=1900 / ratetol=1.0 / qcomp=0.60 / qpmin=10 / qpmax=69 / qpstep=4 / vbv_maxrate=24000 / vbv_bufsize=24000 / nal_hrd=none / ip_ratio=1.40 / aq=1:1.00Language                                 : ItalianDefault                                  : YesForced                                   : NoDURATION                                 : 01:47:54.719000000NUMBER_OF_FRAMES                         : 155238NUMBER_OF_BYTES                          : 1739579942_STATISTICS_WRITING_APP                  : mkvmerge v37.0.0 ('Leave It' 64-bit_STATISTICS_WRITING_DATE_UTC             : 2019-10-01 15:53:58_STATISTICS_TAGS                         : BPS DURATION NUMBER_OF_FRAMES NUMBER_OF_BYTESAudio #1ID                                       : 2Format                                   : AC-3Format/Info                              : Audio Coding 3Mode extension                           : CM (complete main)Codec ID                                 : A_AC3Duration                                 : 1h 47mnBit rate mode                            : ConstantBit rate                                 : 448 KbpsChannel(s)                               : 6 channelsChannel positions                        : Front: L C R, Side: L R, LFESampling rate                            : 48.0 KHzBit depth                                : 16 bitsCompression mode                         : LossyDelay relative to video                  : 1mn 5sStream size                              : 346 MiB (16%)Language                                 : ItalianDefault                                  : YesForced                                   : NoDURATION                                 : 01:47:54.528000000NUMBER_OF_FRAMES                         : 202329NUMBER_OF_BYTES                          : 362573568_STATISTICS_WRITING_APP                  : mkvmerge v37.0.0 ('Leave It' 64-bit_STATISTICS_WRITING_DATE_UTC             : 2019-10-01 15:53:58_STATISTICS_TAGS                         : BPS DURATION NUMBER_OF_FRAMES NUMBER_OF_BYTESAudio #2ID                                       : 3Format                                   : AC-3Format/Info                              : Audio Coding 3Mode extension                           : CM (complete main)Codec ID                                 : A_AC3Duration                                 : 1h 47mnBit rate mode                            : ConstantBit rate                                 : 448 KbpsChannel(s)                               : 6 channelsChannel positions                        : Front: L C R, Side: L R, LFESampling rate                            : 48.0 KHzBit depth                                : 16 bitsCompression mode                         : LossyDelay relative to video                  : 1mn 5sStream size                              : 346 MiB (16%)Language                                 : EnglishDefault                                  : NoForced                                   : NoDURATION                                 : 01:47:54.528000000NUMBER_OF_FRAMES                         : 202329NUMBER_OF_BYTES                          : 517962240_STATISTICS_WRITING_APP                  : mkvmerge v37.0.0 ('Leave It' 64-bit_STATISTICS_WRITING_DATE_UTC             : 2019-10-01 15:53:58_STATISTICS_TAGS                         : BPS DURATION NUMBER_OF_FRAMES NUMBER_OF_BYTES

Dimensione: 2.09 GB

Categoria: BDRip

ISCRIVETEVI AL FORUM

Presto ci saranno molte novità, registratevi gratuitamente al forum

Ricordiamo a tutti che su Cultura Digitale non sono presenti nessun file, questo torrent è di proprietà del Corsaro nero. pubblicato sul loro sito al seguente indirizzo: London Fields (2018).720p.H264.ita.eng.Ac3-5.1.sub.ita.eng-MIRCrew -

COLLEGAMENTO AL TORRENT

Importante: è un link con magnet, si dovrebbe aprire da solo. Se vi esce errore 404 nel vostro computer non è installato un programma per torrent o l’estensione che fa aprire i file magnet.

 Copiate questo link
magnet:?xt=urn:btih:846bc0fa1cc1360547953b8300a95cb14df91bce&dn=London+Fields+%282018%29.720p.H264.ita.eng.Ac3-5.1.sub.ita.eng-MIRCrew&tr=udp%3A%2F%2Ftracker.coppersurfer.tk%3A6969%2Fannounce

Per firefox usare questa estensione – Per Chrome usare questa estensione
Oppure usare Torxh web browser

Se i link risultassero non raggiungibili o bloccati a livello DNS

Seguite la guida Su Questo Articolo : GUIDA COME CAMBIARE DNS