Looking.for.Alaska.S01E01-02.1080p.WEBMux.ITA.ENG.DD5.1.x264-BlackBit – Torrent download

Ecco a voi il torrent Looking.for.Alaska.S01E01-02.1080p.WEBMux.ITA.ENG.DD5.1.x264-BlackBit - proveniente dagli archivi di Torrent

Lo staff di Cultura digitale al fine di promuovere la cultura condivide i contenuti presenti sul sito il corsaro nero.

Nome del Torrent: Looking.for.Alaska.S01E01-02.1080p.WEBMux.ITA.ENG.DD5.1.x264-BlackBit -

Descrizione del torrent: Clicca qua per ingrandire questa immagine[size=36pt]Cercando Alaska - Stagione 1[/size]Clicca qua per ingrandire questa immagineClicca qua per ingrandire questa immagineTitolo originale Looking for AlaskaPaese Stati Uniti d'AmericaAnno 2019Formato miniserie TVGenere dramma adolescenzialePuntate 8Durata 48-57 minuti (puntata)Lingua originale ingleseRapporto 2,00:1Clicca qua per ingrandire questa immagineLa serie racconta la storia e la vita di un gruppo di studenti della Culver Creek, prestigiosa scuola alla quale hanno avuto accesso solo grazie a borse di studio. I protagonisti sono Miles Halter, soprannominato Pancho per la sua magrezza, Chip Martin soprannominato il Colonnello, Takumi, uno studente di origine giapponese e l'esplosiva e imprevedibile Alaska Young.Clicca qua per ingrandire questa immagine[spoiler][/spoiler]Clicca qua per ingrandire questa immagine[spoiler]GeneralUnique ID : 164428788261875387843204010994186628352 (0x7BB3D52C0AE22B87A0BBBCF5ABF0AD00)Complete name : C:UsersAdministratorVideosCercando Alaska S01Ep 01Looking.for.Alaska.S01E01.Famous.Last.Words.1080p.WEBMux.ITA.ENG.DD5.1.x264-BlackBit.mkvFormat : MatroskaFormat version : Version 4File size : 1.57 GiBDuration : 53 min 58 sOverall bit rate : 4 172 kb/sEncoded date : UTC 2020-05-27 21:00:25Writing application : mkvmerge v46.0.0 ('No Deeper Escape' 64-bitWriting library : libebml v1.3.10 + libmatroska v1.5.2VideoID : 1Format : AVCFormat/Info : Advanced Video CodecFormat profile : [email protected] settings : CABAC / 4 Ref FramesFormat settings, CABAC : YesFormat settings, Reference : 4 framesCodec ID : V_MPEG4/ISO/AVCDuration : 53 min 58 sBit rate : 3 529 kb/sWidth : 1 920 pixelsHeight : 1 080 pixelsDisplay aspect ratio : 16:9Frame rate mode : ConstantFrame rate : 24.000 FPSColor space : YUVChroma subsampling : 4:2:0Bit depth : 8 bitsScan type : ProgressiveBits/(Pixel*Frame) : 0.071Stream size : 1.33 GiB (85%)Default : YesForced : YesAudio #1ID : 2Format : AC-3Format/Info : Audio Coding 3Commercial name : Dolby DigitalCodec ID : A_AC3Duration : 53 min 58 sBit rate mode : ConstantBit rate : 384 kb/sChannel(s) : 6 channelsChannel layout : L R C LFE Ls RsSampling rate : 48.0 kHzFrame rate : 31.250 FPS (1536 SPF)Compression mode : LossyStream size : 148 MiB (9%)Language : ItalianService kind : Complete MainDefault : YesForced : YesAudio #2ID : 3Format : E-AC-3Format/Info : Enhanced AC-3Commercial name : Dolby Digital PlusCodec ID : A_EAC3Duration : 53 min 58 sBit rate mode : ConstantBit rate : 256 kb/sChannel(s) : 6 channelsChannel layout : L R C LFE Ls RsSampling rate : 48.0 kHzFrame rate : 31.250 FPS (1536 SPF)Compression mode : LossyStream size : 98.8 MiB (6%)Service kind : Complete MainDefault : NoForced : NoText #1ID : 4Format : UTF-8Codec ID : S_TEXT/UTF8Codec ID/Info : UTF-8 Plain TextDuration : 44 min 3 sBit rate : 1 b/sCount of elements : 11Stream size : 352 Bytes (0%)Language : ItalianDefault : YesForced : YesText #2ID : 5Format : UTF-8Codec ID : S_TEXT/UTF8Codec ID/Info : UTF-8 Plain TextDuration : 51 min 47 sBit rate : 71 b/sCount of elements : 799Stream size : 27.0 KiB (0%)Language : ItalianDefault : NoForced : NoText #3ID : 6Format : UTF-8Codec ID : S_TEXT/UTF8Codec ID/Info : UTF-8 Plain TextDuration : 53 min 26 sBit rate : 85 b/sCount of elements : 1098Stream size : 33.4 KiB (0%)Language : EnglishDefault : NoForced : No[/spoiler]

Dimensione: 2.91 GB

Categoria: SerieTv

ISCRIVETEVI AL FORUM

Presto ci saranno molte novità, registratevi gratuitamente al forum

Ricordiamo a tutti che su Cultura Digitale non sono presenti nessun file, questo torrent è di proprietà del Corsaro nero. pubblicato sul loro sito al seguente indirizzo: Looking.for.Alaska.S01E01-02.1080p.WEBMux.ITA.ENG.DD5.1.x264-BlackBit -

COLLEGAMENTO AL TORRENT

Importante: è un link con magnet, si dovrebbe aprire da solo. Se vi esce errore 404 nel vostro computer non è installato un programma per torrent o l’estensione che fa aprire i file magnet.

 Copiate questo link
magnet:?xt=urn:btih:8b1db3d86594610cb07ebbef40681d992629a69e&dn=Looking.for.Alaska.S01E01-02.1080p.WEBMux.ITA.ENG.DD5.1.x264-BlackBit&tr=udp%3A%2F%2Ftracker.coppersurfer.tk%3A6969%2Fannounce

Per firefox usare questa estensione – Per Chrome usare questa estensione
Oppure usare Torxh web browser

Se i link risultassero non raggiungibili o bloccati a livello DNS

Seguite la guida Su Questo Articolo : GUIDA COME CAMBIARE DNS