Looking.for.Alaska.S01E07-08.WEBMux.ITA.ENG.DD5.1.x264-BlackBit – Torrent download

Ecco a voi il torrent Looking.for.Alaska.S01E07-08.WEBMux.ITA.ENG.DD5.1.x264-BlackBit - proveniente dagli archivi di Torrent

Lo staff di Cultura digitale al fine di promuovere la cultura condivide i contenuti presenti sul sito il corsaro nero.

Nome del Torrent: Looking.for.Alaska.S01E07-08.WEBMux.ITA.ENG.DD5.1.x264-BlackBit -

Descrizione del torrent: Cercando Alaska - Stagione 1itolo originale Looking for AlaskaPaese Stati Uniti d'AmericaAnno 2019Formato miniserie TVGenere dramma adolescenzialePuntate 8Durata 48-57 minuti (puntata)Lingua originale ingleseRapporto 2,00:1La serie racconta la storia e la vita di un gruppo di studenti della Culver Creek, prestigiosa scuola alla quale hanno avuto accesso solo grazie a borse di studio. I protagonisti sono Miles Halter, soprannominato Pancho per la sua magrezza, Chip Martin soprannominato il Colonnello, Takumi, uno studente di origine giapponese e l'esplosiva e imprevedibile Alaska Young.[spoiler[/spoiler[spoilerGeneralUnique ID : 103822876278256286603195296344398484014 (0x4E1B8F029DC13DC69DF1F01B8119D22E)Complete name : C:UsersAdministratorVideosCercando Alaska S01Ep 01Looking.for.Alaska.S01E01.Famous.Last.Words.WEBMux.ITA.ENG.DD5.1.x264-BlackBit.mkvFormat : MatroskaFormat version : Version 4File size : 611 MiBDuration : 53 min 58 sOverall bit rate : 1 582 kb/sEncoded date : UTC 2020-05-27 21:02:28Writing application : mkvmerge v46.0.0 ('No Deeper Escape' 64-bitWriting library : libebml v1.3.10 + libmatroska v1.5.2VideoID : 1Format : AVCFormat/Info : Advanced Video CodecFormat profile : [email protected] settings : CABAC / 16 Ref FramesFormat settings, CABAC : YesFormat settings, Reference : 16 framesCodec ID : V_MPEG4/ISO/AVCDuration : 53 min 58 sBit rate : 986 kb/sWidth : 720 pixelsHeight : 360 pixelsDisplay aspect ratio : 2.000Frame rate mode : ConstantFrame rate : 24.000 FPSColor space : YUVChroma subsampling : 4:2:0Bit depth : 8 bitsScan type : ProgressiveBits/(Pixel*Frame) : 0.158Stream size : 381 MiB (62%)Writing library : x264 core 157 r2969 d4099ddEncoding settings : cabac=1 / ref=16 / deblock=1:0:0 / analyse=0x3:0x133 / me=umh / subme=9 / psy=1 / psy_rd=1.00:0.00 / mixed_ref=1 / me_range=24 / chroma_me=1 / trellis=2 / 8x8dct=1 / cqm=0 / deadzone=21,11 / fast_pskip=0 / chroma_qp_offset=-2 / threads=11 / lookahead_threads=1 / sliced_threads=0 / nr=0 / decimate=1 / interlaced=0 / bluray_compat=0 / constrained_intra=0 / bframes=8 / b_pyramid=2 / b_adapt=2 / b_bias=0 / direct=3 / weightb=1 / open_gop=0 / weightp=2 / keyint=240 / keyint_min=24 / scenecut=40 / intra_refresh=0 / rc_lookahead=60 / rc=crf / mbtree=0 / crf=17.0 / qcomp=0.60 / qpmin=0 / qpmax=69 / qpstep=4 / vbv_maxrate=17500 / vbv_bufsize=17500 / crf_max=0.0 / nal_hrd=none / filler=0 / ip_ratio=1.40 / pb_ratio=1.30 / aq=1:1.00Default : YesForced : YesAudio #1ID : 2Format : AC-3Format/Info : Audio Coding 3Commercial name : Dolby DigitalCodec ID : A_AC3Duration : 53 min 58 sBit rate mode : ConstantBit rate : 384 kb/sChannel(s) : 6 channelsChannel layout : L R C LFE Ls RsSampling rate : 48.0 kHzFrame rate : 31.250 FPS (1536 SPF)Compression mode : LossyStream size : 148 MiB (24%)Language : ItalianService kind : Complete MainDefault : YesForced : YesAudio #2ID : 3Format : AAC LCFormat/Info : Advanced Audio Codec Low ComplexityCodec ID : A_AAC-2Duration : 53 min 58 sBit rate : 209 kb/sChannel(s) : 2 channelsChannel layout : L RSampling rate : 48.0 kHzFrame rate : 46.875 FPS (1024 SPF)Compression mode : LossyDelay relative to video : 9 msStream size : 80.7 MiB (13%)Language : EnglishDefault : NoForced : NoText #1ID : 4Format : UTF-8Codec ID : S_TEXT/UTF8Codec ID/Info : UTF-8 Plain TextDuration : 44 min 3 sBit rate : 1 b/sCount of elements : 11Stream size : 352 Bytes (0%)Language : ItalianDefault : YesForced : YesText #2ID : 5Format : UTF-8Codec ID : S_TEXT/UTF8Codec ID/Info : UTF-8 Plain TextDuration : 51 min 47 sBit rate : 71 b/sCount of elements : 799Stream size : 27.0 KiB (0%)Language : ItalianDefault : NoForced : NoText #3ID : 6Format : UTF-8Codec ID : S_TEXT/UTF8Codec ID/Info : UTF-8 Plain TextDuration : 53 min 26 sBit rate : 85 b/sCount of elements : 1098Stream size : 33.4 KiB (0%)Language : EnglishDefault : NoForced : No[/spoiler

Dimensione: 1.06 GB

Categoria: SerieTv

ISCRIVETEVI AL FORUM

Presto ci saranno molte novità, registratevi gratuitamente al forum

Ricordiamo a tutti che su Cultura Digitale non sono presenti nessun file, questo torrent è di proprietà del Corsaro nero. pubblicato sul loro sito al seguente indirizzo: Looking.for.Alaska.S01E07-08.WEBMux.ITA.ENG.DD5.1.x264-BlackBit -

COLLEGAMENTO AL TORRENT

Importante: è un link con magnet, si dovrebbe aprire da solo. Se vi esce errore 404 nel vostro computer non è installato un programma per torrent o l’estensione che fa aprire i file magnet.

 Copiate questo link
magnet:?xt=urn:btih:e474ec19397a4ceacb502e04d69c80d0973257d4&dn=Looking.for.Alaska.S01E07-08.WEBMux.ITA.ENG.DD5.1.x264-BlackBit&tr=udp%3A%2F%2Ftracker.coppersurfer.tk%3A6969%2Fannounce

Per firefox usare questa estensione – Per Chrome usare questa estensione
Oppure usare Torxh web browser

Se i link risultassero non raggiungibili o bloccati a livello DNS

Seguite la guida Su Questo Articolo : GUIDA COME CAMBIARE DNS