Lost.In.Space.S02E01-10.1080p.WEBRip.HEVC.HDR.ITA.ENG.DDP5.1.x265-BlackBit – Torrent download

Ecco a voi il torrent Lost.In.Space.S02E01-10.1080p.WEBRip.HEVC.HDR.ITA.ENG.DDP5.1.x265-BlackBit - proveniente dagli archivi di Torrent

Lo staff di Cultura digitale al fine di promuovere la cultura condivide i contenuti presenti sul sito il corsaro nero.

Nome del Torrent: Lost.In.Space.S02E01-10.1080p.WEBRip.HEVC.HDR.ITA.ENG.DDP5.1.x265-BlackBit -

Descrizione del torrent: Lost In Space - Stagione 2DATIPaese Stati Uniti d'AmericaAnno 2018 – in produzioneFormato serie TVGenere fantascienza, avventura, azione, drammaticoStagioni 2Episodi 20Lingua originale ingleseTRAMANel futuro, gli esseri umani sono costretti a migrare dalla Terra per formare nuove colonie. Una delle navicelle, che trasporta la famiglia Robinson, si danneggia fino a precipitare su un pianeta sconosciuto. Mentre tentano di scoprire la causa dell'incidente, vengono in contatto con una misteriosa forma di vita extraterrestre.IMMAGINIREPORTGeneralUnique ID : 244030835947538348730741050080843543312 (0xB796A1225BD02D4FB63F4892941C3310)Complete name : C:UsersAdministratorVideosLòst In Space S02Ep 01Lost.In.Space.S02E01.Shipwrecked.1080p.WEBRip.HEVC.HDR.ITA.ENG.DDP5.1.x265-BlackBit.mkvFormat : MatroskaFormat version : Version 4File size : 2.32 GiBDuration : 50 min 5 sOverall bit rate : 6 640 kb/sEncoded date : UTC 2019-12-24 10:51:01Writing application : mkvmerge v41.0.0 ('Smarra' 64-bitWriting library : libebml v1.3.9 + libmatroska v1.5.2VideoID : 1Format : HEVCFormat/Info : High Efficiency Video CodingFormat profile : Main [email protected]@MainHDR format : SMPTE ST 2086, HDR10 compatibleCodec ID : V_MPEGH/ISO/HEVCDuration : 49 min 4 sBit rate : 5 469 kb/sWidth : 1 920 pixelsHeight : 1 080 pixelsDisplay aspect ratio : 16:9Frame rate mode : ConstantFrame rate : 23.976 (24000/1001) FPSColor space : YUVChroma subsampling : 4:2:0 (Type 2)Bit depth : 10 bitsBits/(Pixel*Frame) : 0.110Stream size : 1.87 GiB (81%)Language : EnglishDefault : YesForced : YesColor range : LimitedColor primaries : BT.2020Transfer characteristics : PQMatrix coefficients : BT.2020 non-constantMastering display color pri : Display P3Mastering display luminance : min: 0.0001 cd/m2, max: 1000 cd/m2Maximum Content Light Level : 738 cd/m2Maximum Frame-Average Light : 207 cd/m2Audio #1ID : 2Format : E-AC-3Format/Info : Enhanced AC-3Commercial name : Dolby Digital PlusCodec ID : A_EAC3Duration : 50 min 5 sBit rate mode : ConstantBit rate : 640 kb/sChannel(s) : 6 channelsChannel layout : L R C LFE Ls RsSampling rate : 48.0 kHzFrame rate : 31.250 FPS (1536 SPF)Compression mode : LossyStream size : 229 MiB (10%)Language : ItalianService kind : Complete MainDefault : YesForced : YesAudio #2ID : 3Format : E-AC-3Format/Info : Enhanced AC-3Commercial name : Dolby Digital PlusCodec ID : A_EAC3Duration : 50 min 5 sBit rate mode : ConstantBit rate : 640 kb/sChannel(s) : 6 channelsChannel layout : L R C LFE Ls RsSampling rate : 48.0 kHzFrame rate : 31.250 FPS (1536 SPF)Compression mode : LossyStream size : 229 MiB (10%)Language : EnglishService kind : Complete MainDefault : NoForced : NoText #1ID : 4Format : UTF-8Codec ID : S_TEXT/UTF8Codec ID/Info : UTF-8 Plain TextDuration : 48 min 44 sBit rate : 0 b/sCount of elements : 6Stream size : 151 Bytes (0%)Language : ItalianDefault : YesForced : YesText #2ID : 5Format : UTF-8Codec ID : S_TEXT/UTF8Codec ID/Info : UTF-8 Plain TextDuration : 48 min 45 sBit rate : 49 b/sCount of elements : 585Stream size : 17.8 KiB (0%)Language : ItalianDefault : NoForced : NoText #3ID : 6Format : UTF-8Codec ID : S_TEXT/UTF8Codec ID/Info : UTF-8 Plain TextDuration : 47 min 12 sBit rate : 68 b/sCount of elements : 778Stream size : 23.7 KiB (0%)Language : EnglishDefault : NoForced : NoCREDITI BlackBit

Dimensione: 20.89 GB

Categoria: SerieTv

ISCRIVETEVI AL FORUM

Presto ci saranno molte novità, registratevi gratuitamente al forum

Ricordiamo a tutti che su Cultura Digitale non sono presenti nessun file, questo torrent è di proprietà del Corsaro nero. pubblicato sul loro sito al seguente indirizzo: Lost.In.Space.S02E01-10.1080p.WEBRip.HEVC.HDR.ITA.ENG.DDP5.1.x265-BlackBit -

COLLEGAMENTO AL TORRENT

Importante: è un link con magnet, si dovrebbe aprire da solo. Se vi esce errore 404 nel vostro computer non è installato un programma per torrent o l’estensione che fa aprire i file magnet.

 Copiate questo link
magnet:?xt=urn:btih:7a2ad7c440d4c19c3f712c6b1793d32fe474089e&dn=Lost.In.Space.S02E01-10.1080p.WEBRip.HEVC.HDR.ITA.ENG.DDP5.1.x265-BlackBit&tr=udp%3A%2F%2Ftracker.coppersurfer.tk%3A6969%2Fannounce

Per firefox usare questa estensione – Per Chrome usare questa estensione
Oppure usare Torxh web browser

Se i link risultassero non raggiungibili o bloccati a livello DNS

Seguite la guida Su Questo Articolo : GUIDA COME CAMBIARE DNS