Midsommar Il villaggio dei dannati (2019).720p.H264.ita.eng.Ac3-5.1.sub.ita-MIRCrew – Torrent download

Ecco a voi il torrent Midsommar Il villaggio dei dannati (2019).720p.H264.ita.eng.Ac3-5.1.sub.ita-MIRCrew - proveniente dagli archivi di Torrent

Lo staff di Cultura digitale al fine di promuovere la cultura condivide i contenuti presenti sul sito il corsaro nero.

Nome del Torrent: Midsommar Il villaggio dei dannati (2019).720p.H264.ita.eng.Ac3-5.1.sub.ita-MIRCrew -

Descrizione del torrent: Midsommar - Il villaggio dei dannati (2019).720p.H264.ita.eng.Ac3-5.1.sub.ita-MIRCrewClicca qua per ingrandire questa immagineNO FOUND ONLY ORIGINAL RELEASEMy release is always in double track audio italian and Original audiofor select it use VLC or dvd player homenot use wmp Midsommar - Il villaggio dei dannati  (2019)Quality MIRCrew on HD 720p da 2,9 gb Clicca qua per ingrandire questa immagine Clicca qua per ingrandire questa immagineTitolo originale MidsommarLingua originale inglese, svedesePaese di produzione Stati Uniti d'America, SveziaAnno 2019Durata 147 minRapporto 2,00:1Genere Horror, drammatico, thrillerRegia Ari AsterSceneggiatura Ari AsterClicca qua per ingrandire questa immagine    Florence Pugh: Dani Ardor    Jack Reynor: Christian Hughes    William Jackson Harper: Josh    Vilhelm Blomgren: Pelle    Will Poulter: Mark    Ellora Torchia: Connie    Archie Madekwe: Simon    Gunnel Fred: Siv    Isabelle Grill: Maja    Julia Ragnarsson: Inga    Mats Blomgren: Odd    Hampus Hallberg: Ingemar    Liv Mjönes: Ulla    Louise Peterhoff: Hanna    Björn Andrésen: Dan    Dag Andersson: SvenClicca qua per ingrandire questa immagineDani, in seguito alla scomparsa dei suoi genitori, a malincuore decide di fare un viaggio in Svezia col fidanzato e alcuni amici, giungendo in un villaggio sperduto con usanze estive uniche nel loro genere, dove le cose andranno rapidamente per il peggio. Clicca qua per ingrandire questa immagineA couple travels to Sweden to visit a rural hometown's fabled mid-summer festival. What begins as an idyllic retreat quickly devolves into an increasingly violent and bizarre competition at the hands of a pagan cult. Clicca qua per ingrandire questa immagine  Clicca qua per ingrandire questa immagineClicca qua per ingrandire questa immagine Clicca qua per ingrandire questa immagine Clicca qua per ingrandire questa immagine Clicca qua per ingrandire questa immagine Clicca qua per ingrandire questa immagineClicca qua per ingrandire questa immagineGeneralComplete name                            : Midsommar (2019).720p.ita.eng.sub.ita-MIRCrewMidsommar (2019).720p.ita.eng.sub.ita-MIRCrew.mkvFormat                                   : MatroskaFormat version                           : Version 2File size                                : 2.95 GiBDuration                                 : 2h 27mnOverall bit rate                         : 2 865 KbpsMovie name                               : robbyrsEncoded date                             : UTC 2019-11-08 15:27:43Writing application                      : Lavf54.63.100Writing library                          : Lavf54.63.100COMMENT                                  : robbyrsVideoID                                       : 1Format                                   : AVCFormat/Info                              : Advanced Video CodecFormat profile                           : [email protected] settings, CABAC                   : YesFormat settings, ReFrames                : 2 framesCodec ID                                 : V_MPEG4/ISO/AVCDuration                                 : 2h 27mnBit rate                                 : 2 000 KbpsWidth                                    : 1 280 pixelsHeight                                   : 640 pixelsDisplay aspect ratio                     : 2.000Frame rate mode                          : VariableFrame rate                               : 23.976 fpsColor space                              : YUVChroma subsampling                       : 4:2:0Bit depth                                : 8 bitsScan type                                : ProgressiveBits/(Pixel*Frame)                       : 0.102Stream size                              : 1.97 GiB (67%)Writing library                          : x264 core 130 r2273Encoding settings                        : cabac=1 / ref=2 / deblock=1:0:0 / analyse=0x1:0x131 / me=hex / subme=6 / psy=1 / psy_rd=1.00:0.00 / mixed_ref=0 / me_range=16 / chroma_me=1 / trellis=1 / 8x8dct=0 / cqm=0 / deadzone=21,11 / fast_pskip=1 / chroma_qp_offset=-2 / threads=9 / lookahead_threads=1 / sliced_threads=0 / nr=0 / decimate=1 / interlaced=0 / bluray_compat=0 / constrained_intra=0 / bframes=3 / b_pyramid=0 / b_adapt=1 / b_bias=0 / direct=3 / weightb=1 / open_gop=0 / weightp=2 / keyint=230 / keyint_min=23 / scenecut=40 / intra_refresh=0 / rc_lookahead=30 / rc=abr / mbtree=1 / bitrate=2000 / ratetol=1.0 / qcomp=0.60 / qpmin=10 / qpmax=69 / qpstep=4 / vbv_maxrate=24000 / vbv_bufsize=24000 / nal_hrd=none / ip_ratio=1.40 / aq=1:1.00Language                                 : ItalianDefault                                  : YesForced                                   : NoAudio #1ID                                       : 2Format                                   : AC-3Format/Info                              : Audio Coding 3Mode extension                           : CM (complete main)Codec ID                                 : A_AC3Duration                                 : 2h 27mnBit rate mode                            : ConstantBit rate                                 : 448 KbpsChannel(s)                               : 6 channelsChannel positions                        : Front: L C R, Side: L R, LFESampling rate                            : 48.0 KHzBit depth                                : 16 bitsCompression mode                         : LossyDelay relative to video                  : 1mn 5sStream size                              : 472 MiB (16%)Title                                    : Ita Ac3 5.1Language                                 : ItalianDefault                                  : NoForced                                   : NoAudio #2ID                                       : 3Format                                   : AC-3Format/Info                              : Audio Coding 3Mode extension                           : CM (complete main)Codec ID                                 : A_AC3Duration                                 : 2h 27mnBit rate mode                            : ConstantBit rate                                 : 448 KbpsChannel(s)                               : 6 channelsChannel positions                        : Front: L C R, Side: L R, LFESampling rate                            : 48.0 KHzBit depth                                : 16 bitsCompression mode                         : LossyDelay relative to video                  : 1mn 5sStream size                              : 472 MiB (16%)Title                                    : Eng Ac3 5.1Language                                 : EnglishDefault                                  : NoForced                                   : NoMenu00:00:00.000                             : :00:00:00.00000:12:44.555                             : :00:12:44.55500:24:03.525                             : :00:24:03.52500:33:45.565                             : :00:33:45.56500:49:33.512                             : :00:49:33.51200:57:24.608                             : :00:57:24.60801:13:08.926                             : :01:13:08.92601:24:54.047                             : :01:24:54.04701:38:05.463                             : :01:38:05.46301:50:00.677                             : :01:50:00.67702:02:32.804                             : :02:02:32.80402:14:16.882                             : :02:14:16.882

Dimensione: 2.95 GB

Categoria: BDRip

ISCRIVETEVI AL FORUM

Presto ci saranno molte novità, registratevi gratuitamente al forum

Ricordiamo a tutti che su Cultura Digitale non sono presenti nessun file, questo torrent è di proprietà del Corsaro nero. pubblicato sul loro sito al seguente indirizzo: Midsommar Il villaggio dei dannati (2019).720p.H264.ita.eng.Ac3-5.1.sub.ita-MIRCrew -

COLLEGAMENTO AL TORRENT

Importante: è un link con magnet, si dovrebbe aprire da solo. Se vi esce errore 404 nel vostro computer non è installato un programma per torrent o l’estensione che fa aprire i file magnet.

 Copiate questo link
magnet:?xt=urn:btih:dbd444298749e5c990510f0ea971db40d03a5be2&dn=Midsommar+-+Il+villaggio+dei+dannati+%282019%29.720p.H264.ita.eng.Ac3-5.1.sub.ita-MIRCrew&tr=udp%3A%2F%2Ftracker.coppersurfer.tk%3A6969%2Fannounce

Per firefox usare questa estensione – Per Chrome usare questa estensione
Oppure usare Torxh web browser

Se i link risultassero non raggiungibili o bloccati a livello DNS

Seguite la guida Su Questo Articolo : GUIDA COME CAMBIARE DNS