– Mission Mars-Prishelets (2018) ITA-RUS Ac3 5.1 BDRip 1080p H264 [ArMor] – – Torrent dowload

Ecco a voi il torrent – Mission Mars-Prishelets (2018) ITA-RUS Ac3 5.1 BDRip 1080p H264 [ArMor] – proveniente dagli archivi di [Torrent]

Lo staff di Cultura digitale al fine di promuovere la cultura condivide i contenuti presenti sul sito il corsaro nero.

Nome del Torrent: – Mission Mars-Prishelets (2018) ITA-RUS Ac3 5.1 BDRip 1080p H264 [ArMor] –

Descrizione del torrent: [center]Clicca qua per ingrandire questa immagineDiretto da Aleksandr KulikovProdotto da Aleksandr KarpovScritto da Mikhail Raskhodnikov,Olga Rashodnikova,Aleksey PetrukhinMusica di Sergey Dudakov,Sergey NemirovskiyCinematografia Sergey PavlovModificato da Ilya Andrashnikovproduzione aziende Muravey Production,Russian Film Group,Gruppo Soyuz MarinsDistribuito da Luxor FilmData di rilascio 8 novembre 2018Tempo di esecuzione 91 minutiNazione RussiaClicca qua per ingrandire questa immagineAndrey SmolyakovAnna BanshchikovaMaksim VitorganGrigory SiyatvindaYuriy TsuriloAleksandr KulikovYevgeniya ShipovaClicca qua per ingrandire questa immagineA seguito di una catena di tragici incidenti su un pianeta lontano, il cosmonauta Chapayev rimane solo. La sua vita è in costante pericolo. Qualcosa di inesplicabile, con cui è entrato in contatto, cambierà per sempre la sua vita. D'ora in poi, sarà perso non solo per se stesso, ma anche per la gente della terra. E deve morire molte volte per provare che è vivo.Clicca qua per ingrandire questa immagineAs a result of a chain of tragic accidents on a distant planet, the cosmonaut Chapayev is left alone. His life is in constant danger. Something inexplicable, which he came into contact with, will forever change his life. From now on, he will be lost not only for himself but for the people of earth as well. And he have to die many times in order to prove that he is alive. Clicca qua per ingrandire questa immagineClicca qua per ingrandire questa immagineGeneralUnique ID                                : 220287332954073145580951118689413519113 (0xA5B9CC0E203EFBE787E909FF75EA5709)Complete name                            : Mission Mars-Prishelets (201 ITA-RUS Ac3 5.1 BDRip 1080p H264 [ArMor].mkvFormat                                   : MatroskaFormat version                           : Version 4File size                                : 2.81 GiBDuration                                 : 1 h 30 minOverall bit rate                         : 4 446 kb/sEncoded date                             : UTC 2020-10-30 21:07:46Writing application                      : mkvmerge v15.0.0 ('Duel with the Devil&#39 64-bitWriting library                          : libebml v1.3.5 + libmatroska v1.4.5 / Lavf58.29.100VideoID                                       : 1Format                                   : AVCFormat/Info                              : Advanced Video CodecFormat profile                           : [email protected] settings                          : CABAC / 4 Ref FramesFormat settings, CABAC                   : YesFormat settings, Reference frames        : 4 framesCodec ID                                 : V_MPEG4/ISO/AVCDuration                                 : 1 h 30 minBit rate                                 : 3 548 kb/sWidth                                    : 1 920 pixelsHeight                                   : 804 pixelsDisplay aspect ratio                     : 2.40:1Frame rate mode                          : ConstantFrame rate                               : 24.000 FPSColor space                              : YUVChroma subsampling                       : 4:2:0Bit depth                                : 8 bitsScan type                                : ProgressiveBits/(Pixel*Frame)                       : 0.096Stream size                              : 2.24 GiB (80%)Writing library                          : x264 core 157 r2935 545de2fEncoding settings                        : cabac=1 / ref=2 / deblock=1:0:0 / analyse=0x1:0x111 / me=hex / subme=6 / psy=1 / psy_rd=1.00:0.00 / mixed_ref=1 / me_range=16 / chroma_me=1 / trellis=1 / 8x8dct=0 / cqm=0 / deadzone=21,11 / fast_pskip=1 / chroma_qp_offset=-2 / threads=18 / lookahead_threads=3 / sliced_threads=0 / nr=0 / decimate=1 / interlaced=0 / bluray_compat=0 / constrained_intra=0 / bframes=3 / b_pyramid=2 / b_adapt=1 / b_bias=0 / direct=1 / weightb=1 / open_gop=0 / weightp=1 / keyint=240 / keyint_min=24 / scenecut=40 / intra_refresh=0 / rc_lookahead=30 / rc=crf / mbtree=1 / crf=20.0 / qcomp=0.60 / qpmin=0 / qpmax=69 / qpstep=4 / vbv_maxrate=20000 / vbv_bufsize=25000 / crf_max=0.0 / nal_hrd=none / filler=0 / ip_ratio=1.40 / aq=1:1.00Default                                  : YesForced                                   : NoColor range                              : LimitedColor primaries                          : BT.709Transfer characteristics                 : BT.709Matrix coefficients                      : BT.709Audio #1ID                                       : 2Format                                   : AC-3Format/Info                              : Audio Coding 3Commercial name                          : Dolby DigitalCodec ID                                 : A_AC3Duration                                 : 1 h 30 minBit rate mode                            : ConstantBit rate                                 : 448 kb/sChannel(s)                               : 6 channelsChannel layout                           : L R C LFE Ls RsSampling rate                            : 48.0 kHzFrame rate                               : 31.250 FPS (1536 SPF)Compression mode                         : LossyStream size                              : 290 MiB (10%)Title                                    : DVDLanguage                                 : ItalianService kind                             : Complete MainDefault                                  : YesForced                                   : NoAudio #2ID                                       : 3Format                                   : AC-3Format/Info                              : Audio Coding 3Commercial name                          : Dolby DigitalCodec ID                                 : A_AC3Duration                                 : 1 h 30 minBit rate mode                            : ConstantBit rate                                 : 448 kb/sChannel(s)                               : 6 channelsChannel layout                           : L R C LFE Ls RsSampling rate                            : 48.0 kHzFrame rate                               : 31.250 FPS (1536 SPF)Compression mode                         : LossyStream size                              : 290 MiB (10%)Title                                    : DTSLanguage                                 : RussianService kind                             : Complete MainDefault                                  : NoForced                                   : No[/center]Clicca qua per ingrandire questa immagine

Dimensione:2.81 GB

Categoria: BDRip

ISCRIVETEVI AL FORUM

Presto ci saranno molte novità, registratevi gratuitamente al forum

Ricordiamo a tutti che su Cultura Digitale non sono presenti nessun file, questo torrent è di proprietà del Corsaro nero. pubblicato sul loro sito al seguente indirizzo: – Mission Mars-Prishelets (2018) ITA-RUS Ac3 5.1 BDRip 1080p H264 [ArMor] –

COLLEGAMENTO AL TORRENT

Importante: è un link con magnet, si dovrebbe aprire da solo. Se vi esce errore 404 nel vostro computer non è installato un programma per torrent o l’estensione che fa aprire i file magnet.

 Copiate questo link
magnet:?xt=urn:btih:5f377075860fcbcb373fa6f330f5a0ff67cde898&dn=Mission+Mars-Prishelets+%282018%29+ITA-RUS+Ac3+5.1+BDRip+1080p+H264+%5BArMor%5D&tr=udp%3A%2F%2Ftracker.coppersurfer.tk%3A6969%2Fannounce

Per firefox usare questa estensione – Per Chrome usare questa estensione
Oppure usare Torxh web browser

Se i link risultassero non raggiungibili o bloccati a livello DNS

Seguite la guida Su Questo Articolo : GUIDA COME CAMBIARE DNS