Nessuno sa chi io sono qui-Nadie sabe que estoy aqui (2020) ITA-SPA Ac3 5.1 WEBRip 1080p H264 [ArMor – Torrent download

Ecco a voi il torrent Nessuno sa chi io sono qui-Nadie sabe que estoy aqui (2020) ITA-SPA Ac3 5.1 WEBRip 1080p H264 [ArMor - proveniente dagli archivi di Torrent

Lo staff di Cultura digitale al fine di promuovere la cultura condivide i contenuti presenti sul sito il corsaro nero.

Nome del Torrent: Nessuno sa chi io sono qui-Nadie sabe que estoy aqui (2020) ITA-SPA Ac3 5.1 WEBRip 1080p H264 [ArMor -

Descrizione del torrent: Titolo originale Nadie Sabe Que Estoy AquíPaese di produzione CileAnno 2020Genere drammaticoRegia Gaspar AntilloPlot: Memo ha vissuto in una capanna in una remota fattoria di pecore nel sud del Cile per 15 anni e nasconde la sua bella voce al mondo esterno. Da bambino voleva diventare una pop star, ma qualcosa è andato storto. Quando Marta lo sente cantare, lo registra e pubblica il video: la performance si diffonde rapidamente onlineMemo lives on a remote Chilean sheep farm, hiding a beautiful singing voice from the outside world. A recluse with a glittery flair, he can't stop dwelling on the past, but what will happen once someone finally listens? GeneralUnique ID                                : 186327199047250560571965403624718877686 (0x8C2D502E85FAA21DB2D6E8C4404A43F6)Complete name                            : Nessuno sa chi io sono qui-Nadie sabe que estoy aqui (2020) ITA-SPA Ac3 5.1 WEBRip 1080p H264 [ArMor.mkvFormat                                   : MatroskaFormat version                           : Version 4File size                                : 2.77 GiBDuration                                 : 1 h 31 minOverall bit rate                         : 4 315 kb/sEncoded date                             : UTC 2020-06-25 21:23:54Writing application                      : mkvmerge v15.0.0 ('Duel with the Devil' 64-bitWriting library                          : libebml v1.3.5 + libmatroska v1.4.5 / Lavf58.29.100VideoID                                       : 1Format                                   : AVCFormat/Info                              : Advanced Video CodecFormat profile                           : [email protected] settings                          : CABAC / 4 Ref FramesFormat settings, CABAC                   : YesFormat settings, Reference frames        : 4 framesCodec ID                                 : V_MPEG4/ISO/AVCDuration                                 : 1 h 31 minBit rate                                 : 3 500 kb/sWidth                                    : 1 920 pixelsHeight                                   : 722 pixelsDisplay aspect ratio                     : 2.659Frame rate mode                          : ConstantFrame rate                               : 24.000 FPSColor space                              : YUVChroma subsampling                       : 4:2:0Bit depth                                : 8 bitsScan type                                : ProgressiveBits/(Pixel*Frame)                       : 0.105Stream size                              : 2.19 GiB (79%)Writing library                          : x264 core 157 r2935 545de2fEncoding settings                        : cabac=1 / ref=2 / deblock=1:0:0 / analyse=0x1:0x111 / me=hex / subme=6 / psy=1 / psy_rd=1.00:0.00 / mixed_ref=1 / me_range=16 / chroma_me=1 / trellis=1 / 8x8dct=0 / cqm=0 / deadzone=21,11 / fast_pskip=1 / chroma_qp_offset=-2 / threads=18 / lookahead_threads=3 / sliced_threads=0 / nr=0 / decimate=1 / interlaced=0 / bluray_compat=0 / constrained_intra=0 / bframes=3 / b_pyramid=2 / b_adapt=1 / b_bias=0 / direct=1 / weightb=1 / open_gop=0 / weightp=1 / keyint=240 / keyint_min=24 / scenecut=40 / intra_refresh=0 / rc_lookahead=30 / rc=abr / mbtree=1 / bitrate=3500 / ratetol=1.0 / qcomp=0.60 / qpmin=0 / qpmax=69 / qpstep=4 / vbv_maxrate=50000 / vbv_bufsize=62500 / nal_hrd=none / filler=0 / ip_ratio=1.40 / aq=1:1.00Default                                  : YesForced                                   : NoColor range                              : LimitedColor primaries                          : BT.709Transfer characteristics                 : BT.709Matrix coefficients                      : BT.709Audio #1ID                                       : 2Format                                   : AC-3Format/Info                              : Audio Coding 3Commercial name                          : Dolby DigitalCodec ID                                 : A_AC3Duration                                 : 1 h 31 minBit rate mode                            : ConstantBit rate                                 : 448 kb/sChannel(s)                               : 6 channelsChannel layout                           : L R C LFE Ls RsSampling rate                            : 48.0 kHzFrame rate                               : 31.250 FPS (1536 SPF)Compression mode                         : LossyStream size                              : 294 MiB (10%)Title                                    : WEBDL EAC3Language                                 : ItalianService kind                             : Complete MainDefault                                  : YesForced                                   : NoAudio #2ID                                       : 3Format                                   : AC-3Format/Info                              : Audio Coding 3Commercial name                          : Dolby DigitalCodec ID                                 : A_AC3Duration                                 : 1 h 31 minBit rate mode                            : ConstantBit rate                                 : 448 kb/sChannel(s)                               : 6 channelsChannel layout                           : L R C LFE Ls RsSampling rate                            : 48.0 kHzFrame rate                               : 31.250 FPS (1536 SPF)Compression mode                         : LossyStream size                              : 294 MiB (10%)Title                                    : EAC3Language                                 : SpanishService kind                             : Complete MainDefault                                  : NoForced                                   : No

Dimensione: 2.77 GB

Categoria: BDRip

ISCRIVETEVI AL FORUM

Presto ci saranno molte novità, registratevi gratuitamente al forum

Ricordiamo a tutti che su Cultura Digitale non sono presenti nessun file, questo torrent è di proprietà del Corsaro nero. pubblicato sul loro sito al seguente indirizzo: Nessuno sa chi io sono qui-Nadie sabe que estoy aqui (2020) ITA-SPA Ac3 5.1 WEBRip 1080p H264 [ArMor -

COLLEGAMENTO AL TORRENT

Importante: è un link con magnet, si dovrebbe aprire da solo. Se vi esce errore 404 nel vostro computer non è installato un programma per torrent o l’estensione che fa aprire i file magnet.

 Copiate questo link
magnet:?xt=urn:btih:f0f3dad92cf22da99503abd97086c505c0618db6&dn=Nessuno+sa+chi+io+sono+qui-Nadie+sabe+que+estoy+aqui+%282020%29+ITA-SPA+Ac3+5.1+WEBRip+1080p+H264+%5BArMor&tr=udp%3A%2F%2Ftracker.coppersurfer.tk%3A6969%2Fannounce

Per firefox usare questa estensione – Per Chrome usare questa estensione
Oppure usare Torxh web browser

Se i link risultassero non raggiungibili o bloccati a livello DNS

Seguite la guida Su Questo Articolo : GUIDA COME CAMBIARE DNS