New.Amsterdam.2018.S02E14-16.1080p.WEBMux.HEVC.ITA.ENG.x265-BlackBit – Torrent download

Ecco a voi il torrent New.Amsterdam.2018.S02E14-16.1080p.WEBMux.HEVC.ITA.ENG.x265-BlackBit - proveniente dagli archivi di Torrent

Lo staff di Cultura digitale al fine di promuovere la cultura condivide i contenuti presenti sul sito il corsaro nero.

Nome del Torrent: New.Amsterdam.2018.S02E14-16.1080p.WEBMux.HEVC.ITA.ENG.x265-BlackBit -

Descrizione del torrent: New Amsterdam - Stagione 2itolo originale New AmsterdamPaese Stati Uniti d'AmericaAnno 2018 – in produzioneFormato serie TVGenere drammatico, medicoStagioni 2Durata 43 min (episodio)Lingua originale ingleseIl dottor Max Goodwin diventa direttore medico di uno degli ospedali pubblici più vecchi degli Stati Uniti con l'obiettivo di riformare la struttura trascurata stravolgendo la sua burocrazia per fornire un'assistenza eccezionale ai pazienti.[spoiler[/spoiler[spoilerGeneralUnique ID : 159916370979260167058981221227616136124 (0x784EC5D2B9C9A4A2F64BB1D56129EBBC)Complete name : C:UsersAdministratorVideosNew Amsterdam S02New.Amsterdam.2018.S02E01.Your.Turn.1080p.WEBMux.HEVC.ITA.ENG.x265-BlackBit.mkvFormat : MatroskaFormat version : Version 4File size : 1.24 GiBDuration : 42 min 59 sOverall bit rate : 4 129 kb/sEncoded date : UTC 2020-01-14 21:52:26Writing application : mkvmerge v41.0.0 ('Smarra' 64-bitWriting library : libebml v1.3.9 + libmatroska v1.5.2VideoID : 1Format : HEVCFormat/Info : High Efficiency Video CodingFormat profile : Main [email protected]@MainCodec ID : V_MPEGH/ISO/HEVCDuration : 42 min 59 sBit rate : 3 295 kb/sWidth : 1 920 pixelsHeight : 1 080 pixelsDisplay aspect ratio : 16:9Frame rate mode : ConstantFrame rate : 23.976 (24000/1001) FPSColor space : YUVChroma subsampling : 4:2:0Bit depth : 10 bitsBits/(Pixel*Frame) : 0.066Stream size : 1 013 MiB (80%)Writing library : x265 3.1+14-f08461fdae33:[Windows[MSVC 1922[64 bit 10bitEncoding settings : cpuid=1111039 / frame-threads=4 / numa-pools=16 / wpp / no-pmode / no-pme / no-psnr / no-ssim / log-level=2 / input-csp=1 / input-res=1920x1080 / interlace=0 / total-frames=61846 / level-idc=0 / high-tier=1 / uhd-bd=0 / ref=4 / no-allow-non-conformance / no-repeat-headers / annexb / no-aud / no-hrd / info / hash=0 / no-temporal-layers / open-gop / min-keyint=23 / keyint=250 / gop-lookahead=0 / bframes=8 / b-adapt=2 / b-pyramid / bframe-bias=0 / rc-lookahead=50 / lookahead-slices=4 / scenecut=40 / radl=0 / no-splice / no-intra-refresh / ctu=64 / min-cu-size=8 / no-rect / no-amp / max-tu-size=32 / tu-inter-depth=1 / tu-intra-depth=1 / limit-tu=0 / rdoq-level=2 / dynamic-rd=0.00 / no-ssim-rd / signhide / no-tskip / nr-intra=0 / nr-inter=0 / no-constrained-intra / no-strong-intra-smoothing / max-merge=3 / limit-refs=3 / limit-modes / me=3 / subme=3 / merange=57 / temporal-mvp / no-hme / weightp / no-weightb / no-analyze-src-pics / deblock=1:1 / no-sao / no-sao-non-deblock / rd=4 / no-early-skip / no-rskip / no-fast-intra / no-tskip-fast / no-cu-lossless / no-b-intra / no-splitrd-skip / rdpenalty=0 / psy-rd=1.40 / psy-rdoq=1.00 / no-rd-refine / no-lossless / cbqpoffs=0 / crqpoffs=0 / rc=crf / crf=21.0 / qcomp=0.60 / qpstep=4 / stats-write=0 / stats-read=0 / ipratio=1.40 / pbratio=1.30 / aq-mode=2 / aq-strength=1.00 / cutree / zone-count=0 / no-strict-cbr / qg-size=32 / no-rc-grain / qpmax=69 / qpmin=0 / no-const-vbv / sar=0 / overscan=0 / videoformat=5 / range=0 / colorprim=2 / transfer=2 / colormatrix=2 / chromaloc=0 / display-window=0cll=0,0 / min-luma=0 / max-luma=1023 / log2-max-poc-lsb=8 / vui-timing-info / vui-hrd-info / slices=1 / no-opt-qp-pps / no-opt-ref-list-length-pps / no-multi-pass-opt-rps / scenecut-bias=0.05 / no-opt-cu-delta-qp / no-aq-motion / no-hdr / no-hdr-opt / no-dhdr10-opt / no-idr-recovery-sei / analysis-reuse-level=5 / scale-factor=0 / refine-intra=0 / refine-inter=0 / refine-mv=0 / refine-ctu-distortion=0 / no-limit-sao / ctu-info=0 / no-lowpass-dct / refine-analysis-type=0 / copy-pic=1 / max-ausize-factor=1.0 / no-dynamic-refine / no-single-sei / no-hevc-aq / no-svt / no-field / qp-adaptation-range=1.00Language : EnglishDefault : YesForced : YesAudio #1ID : 2Format : AC-3Format/Info : Audio Coding 3Commercial name : Dolby DigitalCodec ID : A_AC3Duration : 42 min 59 sBit rate mode : ConstantBit rate : 192 kb/sChannel(s) : 2 channelsChannel layout : L RSampling rate : 48.0 kHzFrame rate : 31.250 FPS (1536 SPF)Compression mode : LossyStream size : 59.0 MiB (5%)Language : ItalianService kind : Complete MainDefault : YesForced : YesAudio #2ID : 3Format : E-AC-3Format/Info : Enhanced AC-3Commercial name : Dolby Digital PlusCodec ID : A_EAC3Duration : 42 min 59 sBit rate mode : ConstantBit rate : 640 kb/sChannel(s) : 6 channelsChannel layout : L R C LFE Ls RsSampling rate : 48.0 kHzFrame rate : 31.250 FPS (1536 SPF)Compression mode : LossyStream size : 197 MiB (15%)Language : EnglishService kind : Complete MainDefault : NoForced : NoText #1ID : 4Format : UTF-8Codec ID : S_TEXT/UTF8Codec ID/Info : UTF-8 Plain TextDuration : 40 min 54 sBit rate : 4 b/sCount of elements : 27Stream size : 1.30 KiB (0%)Language : ItalianDefault : YesForced : YesText #2ID : 5Format : UTF-8Codec ID : S_TEXT/UTF8Codec ID/Info : UTF-8 Plain TextDuration : 42 min 7 sBit rate : 86 b/sCount of elements : 764Stream size : 26.8 KiB (0%)Language : ItalianDefault : NoForced : NoText #3ID : 6Format : UTF-8Codec ID : S_TEXT/UTF8Codec ID/Info : UTF-8 Plain TextDuration : 42 min 8 sBit rate : 84 b/sCount of elements : 837Stream size : 26.2 KiB (0%)Language : EnglishDefault : NoForced : NoText #4ID : 7Format : UTF-8Codec ID : S_TEXT/UTF8Codec ID/Info : UTF-8 Plain TextDuration : 42 min 29 sBit rate : 90 b/sCount of elements : 1019Stream size : 28.3 KiB (0%)Title : SDHLanguage : EnglishDefault : NoForced : NoMenu00:00:00.000 : en:Studio Logo00:00:04.000 : enreviously On00:00:55.000 : en:Scene 300:02:46.000 : en:Title Sequence00:02:50.000 : en:Scene 500:15:37.000 : en:Scene 600:22:12.000 : en:Scene 700:32:37.000 : en:Scene 800:42:21.000 : en:End Credits[/spoiler

Dimensione: 3.76 GB

Categoria: SerieTv

ISCRIVETEVI AL FORUM

Presto ci saranno molte novità, registratevi gratuitamente al forum

Ricordiamo a tutti che su Cultura Digitale non sono presenti nessun file, questo torrent è di proprietà del Corsaro nero. pubblicato sul loro sito al seguente indirizzo: New.Amsterdam.2018.S02E14-16.1080p.WEBMux.HEVC.ITA.ENG.x265-BlackBit -

COLLEGAMENTO AL TORRENT

Importante: è un link con magnet, si dovrebbe aprire da solo. Se vi esce errore 404 nel vostro computer non è installato un programma per torrent o l’estensione che fa aprire i file magnet.

 Copiate questo link
magnet:?xt=urn:btih:8c23024a1e3d1c4dc00b2ec6a100caed4c8825ae&dn=New.Amsterdam.2018.S02E14-16.1080p.WEBMux.HEVC.ITA.ENG.x265-BlackBit&tr=udp%3A%2F%2Ftracker.coppersurfer.tk%3A6969%2Fannounce

Per firefox usare questa estensione – Per Chrome usare questa estensione
Oppure usare Torxh web browser

Se i link risultassero non raggiungibili o bloccati a livello DNS

Seguite la guida Su Questo Articolo : GUIDA COME CAMBIARE DNS