– Non dormire nel bosco stanotte (2020) ITA-POL Ac3 5.1 WebRip 1080p H264 [ArMor] – – Torrent dowload

Ecco a voi il torrent – Non dormire nel bosco stanotte (2020) ITA-POL Ac3 5.1 WebRip 1080p H264 [ArMor] – proveniente dagli archivi di [Torrent]

Lo staff di Cultura digitale al fine di promuovere la cultura condivide i contenuti presenti sul sito il corsaro nero.

Nome del Torrent: – Non dormire nel bosco stanotte (2020) ITA-POL Ac3 5.1 WebRip 1080p H264 [ArMor] –

Descrizione del torrent: [center]Clicca qua per ingrandire questa immagineRegista: Bartosz M. KowalskiGenere: Horror, ThrillerAnno: 2020Paese: PoloniaDurata: 102 minDistribuzione: NetflixClicca qua per ingrandire questa immagineJulia Wieniawa-Narkiewicz, Michal Lupa, Wiktoria Gasiewska, Stanislaw Cywka, Sebastian Dela, Gabriela Muskala, Michal ZbrojaClicca qua per ingrandire questa immagineNon dormire nel bosco stanotte, film originale Netflix diretto da Bartosz M. Kowalski, vede protagonisti un gruppo di adolescenti dipendenti dalla tecnologia che, per disintossicarsi, si recano in un “offline-camp” per una gita di tre giorni immersi nella natura. Niente smartphone, tablet, connessione internet o altro demonio tecnologico per la pacata Zosia (Julia Wieniawa-Narkiewicz), il nerd Julek (Michal Lupa), il timido Bartek (Stanislaw Cywka), la seducente Aniela (Wiktoria Gasiewska) e il palestrato Daniel (Sebastian Dela), che insieme alla loro guida Iza (Gabriela Muskala) cercheranno di riconciliarsi con la vita “reale”. O almeno così credevano… Nel bosco infatti, una baita abbandonata ospita due malvagie creature, che renderanno la permanenza dei giovani sventurati – lontani da ogni mezzo di comunicazione – un vero e proprio inferno.Clicca qua per ingrandire questa immagineA group of technology-dependent teenagers goes to – offline camp. Common hiking in the woods without access to smartphones will not end, however, as planned by the organizers. They will have to fight for real life with something that they have not seen even in the darkest corners of the Internet. In the face of deadly danger lurking in the woods, they will discover what true friendship, love and sacrifice are. Clicca qua per ingrandire questa immagineClicca qua per ingrandire questa immagineGeneralUnique ID                                : 231626886571040835459616059545646561002 (0xAE41B7369F9037E09460AAFEEEEC76EA)Complete name                            : Non dormire nel bosco stanotte (2020) ITA-POL Ac3 5.1 WebRip 1080p H264 [ArMor].mkvFormat                                   : MatroskaFormat version                           : Version 4File size                                : 3.96 GiBDuration                                 : 1 h 43 minOverall bit rate                         : 5 481 kb/sEncoded date                             : UTC 2020-10-28 16:31:34Writing application                      : mkvmerge v15.0.0 ('Duel with the Devil&#39 64-bitWriting library                          : libebml v1.3.5 + libmatroska v1.4.5 / Lavf58.29.100VideoID                                       : 1Format                                   : AVCFormat/Info                              : Advanced Video CodecFormat profile                           : [email protected] settings                          : CABAC / 4 Ref FramesFormat settings, CABAC                   : YesFormat settings, Reference frames        : 4 framesCodec ID                                 : V_MPEG4/ISO/AVCDuration                                 : 1 h 43 minBit rate                                 : 4 583 kb/sWidth                                    : 1 918 pixelsHeight                                   : 804 pixelsDisplay aspect ratio                     : 2.40:1Frame rate mode                          : ConstantFrame rate                               : 24.000 FPSColor space                              : YUVChroma subsampling                       : 4:2:0Bit depth                                : 8 bitsScan type                                : ProgressiveBits/(Pixel*Frame)                       : 0.124Stream size                              : 3.31 GiB (84%)Writing library                          : x264 core 157 r2935 545de2fEncoding settings                        : cabac=1 / ref=2 / deblock=1:0:0 / analyse=0x1:0x111 / me=hex / subme=6 / psy=1 / psy_rd=1.00:0.00 / mixed_ref=1 / me_range=16 / chroma_me=1 / trellis=1 / 8x8dct=0 / cqm=0 / deadzone=21,11 / fast_pskip=1 / chroma_qp_offset=-2 / threads=18 / lookahead_threads=3 / sliced_threads=0 / nr=0 / decimate=1 / interlaced=0 / bluray_compat=0 / constrained_intra=0 / bframes=3 / b_pyramid=2 / b_adapt=1 / b_bias=0 / direct=1 / weightb=1 / open_gop=0 / weightp=1 / keyint=240 / keyint_min=24 / scenecut=40 / intra_refresh=0 / rc_lookahead=30 / rc=crf / mbtree=1 / crf=20.0 / qcomp=0.60 / qpmin=0 / qpmax=69 / qpstep=4 / vbv_maxrate=20000 / vbv_bufsize=25000 / crf_max=0.0 / nal_hrd=none / filler=0 / ip_ratio=1.40 / aq=1:1.00Default                                  : YesForced                                   : NoColor range                              : LimitedColor primaries                          : BT.709Transfer characteristics                 : BT.709Matrix coefficients                      : BT.709Audio #1ID                                       : 2Format                                   : AC-3Format/Info                              : Audio Coding 3Commercial name                          : Dolby DigitalCodec ID                                 : A_AC3Duration                                 : 1 h 43 minBit rate mode                            : ConstantBit rate                                 : 448 kb/sChannel(s)                               : 6 channelsChannel layout                           : L R C LFE Ls RsSampling rate                            : 48.0 kHzFrame rate                               : 31.250 FPS (1536 SPF)Compression mode                         : LossyStream size                              : 331 MiB (8%)Title                                    : WEBDL EAC3Language                                 : ItalianService kind                             : Complete MainDefault                                  : YesForced                                   : NoAudio #2ID                                       : 3Format                                   : AC-3Format/Info                              : Audio Coding 3Commercial name                          : Dolby DigitalCodec ID                                 : A_AC3Duration                                 : 1 h 43 minBit rate mode                            : ConstantBit rate                                 : 448 kb/sChannel(s)                               : 6 channelsChannel layout                           : L R C LFE Ls RsSampling rate                            : 48.0 kHzFrame rate                               : 31.250 FPS (1536 SPF)Compression mode                         : LossyStream size                              : 331 MiB (8%)Title                                    : EAC3Language                                 : PolishService kind                             : Complete MainDefault                                  : NoForced                                   : No[/center]Clicca qua per ingrandire questa immagine

Dimensione:3.96 GB

Categoria: BDRip

ISCRIVETEVI AL FORUM

Presto ci saranno molte novità, registratevi gratuitamente al forum

Ricordiamo a tutti che su Cultura Digitale non sono presenti nessun file, questo torrent è di proprietà del Corsaro nero. pubblicato sul loro sito al seguente indirizzo: – Non dormire nel bosco stanotte (2020) ITA-POL Ac3 5.1 WebRip 1080p H264 [ArMor] –

COLLEGAMENTO AL TORRENT

Importante: è un link con magnet, si dovrebbe aprire da solo. Se vi esce errore 404 nel vostro computer non è installato un programma per torrent o l’estensione che fa aprire i file magnet.

 Copiate questo link
magnet:?xt=urn:btih:07759b26a4d2b83454bae77b0c1f9da21c00e13c&dn=Non+dormire+nel+bosco+stanotte+%282020%29+ITA-POL+Ac3+5.1+WebRip+1080p+H264+%5BArMor%5D&tr=udp%3A%2F%2Ftracker.coppersurfer.tk%3A6969%2Fannounce

Per firefox usare questa estensione – Per Chrome usare questa estensione
Oppure usare Torxh web browser

Se i link risultassero non raggiungibili o bloccati a livello DNS

Seguite la guida Su Questo Articolo : GUIDA COME CAMBIARE DNS