Outlander.S05E04.The.Company.We.Keep.1080p.WEBMux.ITA.ENG.DD5.1.x264-BlackBit.mkv – Torrent download

Ecco a voi il torrent Outlander.S05E04.The.Company.We.Keep.1080p.WEBMux.ITA.ENG.DD5.1.x264-BlackBit.mkv - proveniente dagli archivi di Torrent

Lo staff di Cultura digitale al fine di promuovere la cultura condivide i contenuti presenti sul sito il corsaro nero.

Nome del Torrent: Outlander.S05E04.The.Company.We.Keep.1080p.WEBMux.ITA.ENG.DD5.1.x264-BlackBit.mkv -

Descrizione del torrent: Outlander - Stagione 5itolo originale OutlanderPaese Stati Uniti d'America, Regno UnitoAnno 2014 – in produzioneFormato serie TVGenere fantastico, drammatico, sentimentale, in costumeStagioni 5Episodi 67Durata 51-88 min (episodio)Lingua originale inglese, gaelico scozzese, scozzese, francese, spagnoloRapporto 16:9[imdbtt3006802[/imdbDramma storico con background fantasy: nel 1945 Claire Randall è con il marito in Scozia per una seconda luna di miele nelle Highland. Durante una passeggiata, Claire attraversa un antico cerchio di pietre e d'improvviso si trova proiettata indietro nel tempo, di colpo straniera in una Scozia dilaniata dalla guerra e dai conflitti tra i clan nell'anno del Signore 1743.[spoiler[/spoiler[spoilerGeneralUnique ID : 336571164274108074949596910519346421336 (0xFD353F9521066BEDDC711DF1884A5E5Complete name : C:UsersolderzDesktopOutlander 5muxedS05E01 1080pOutlander.S05E01.The.Fiery.Cross.1080p.WEBMux.ITA.ENG.DD5.1.x264-BlackBit.mkvFormat : MatroskaFormat version : Version 4 / Version 2File size : 4.34 GiBDuration : 1 h 1 minOverall bit rate : 10.0 Mb/sEncoded date : UTC 2020-03-06 23:09:25Writing application : mkvmerge v43.0.0 ('The Quartermaster' 64-bitWriting library : libebml v1.3.10 + libmatroska v1.5.2VideoID : 1Format : AVCFormat/Info : Advanced Video CodecFormat profile : [email protected] settings : CABAC / 4 Ref FramesFormat settings, CABAC : YesFormat settings, ReFrames : 4 framesCodec ID : V_MPEG4/ISO/AVCDuration : 1 h 1 minBit rate mode : ConstantBit rate : 9 004 kb/sNominal bit rate : 10 000 kb/sWidth : 1 920 pixelsHeight : 1 080 pixelsDisplay aspect ratio : 16:9Frame rate mode : ConstantFrame rate : 23.976 (24000/1001) FPSColor space : YUVChroma subsampling : 4:2:0Bit depth : 8 bitsScan type : ProgressiveBits/(Pixel*Frame) : 0.181Stream size : 3.90 GiB (90%)Language : EnglishDefault : YesForced : NoColor range : LimitedColor primaries : BT.709Transfer characteristics : BT.709Matrix coefficients : BT.709Audio #1ID : 2Format : AC-3Format/Info : Audio Coding 3Codec ID : A_AC3Duration : 1 h 1 minBit rate mode : ConstantBit rate : 384 kb/sChannel(s) : 6 channelsChannel positions : Front: L C R, Side: L R, LFESampling rate : 48.0 kHzFrame rate : 31.250 FPS (1536 SPF)Bit depth : 16 bitsCompression mode : LossyStream size : 170 MiB (4%)Language : ItalianService kind : Complete MainDefault : YesForced : NoAudio #2ID : 3Format : E-AC-3Format/Info : Enhanced Audio Coding 3Codec ID : A_EAC3Duration : 1 h 1 minBit rate mode : ConstantBit rate : 640 kb/sChannel(s) : 6 channelsChannel positions : Front: L C R, Side: L R, LFESampling rate : 48.0 kHzFrame rate : 187.500 FPS (256 SPF)Compression mode : LossyStream size : 284 MiB (6%)Language : EnglishService kind : Complete MainDefault : NoForced : NoText #1ID : 4Format : UTF-8Codec ID : S_TEXT/UTF8Codec ID/Info : UTF-8 Plain TextBit rate : 0 b/sCount of elements : 0Stream size : 0.00 Byte (0%)Title : emptyDefault : YesForced : NoText #2ID : 5Format : UTF-8Codec ID : S_TEXT/UTF8Codec ID/Info : UTF-8 Plain TextDuration : 59 min 50 sBit rate : 51 b/sCount of elements : 718Stream size : 22.5 KiB (0%)Language : ItalianDefault : NoForced : NoText #3ID : 6Format : UTF-8Codec ID : S_TEXT/UTF8Codec ID/Info : UTF-8 Plain TextDuration : 1 h 0 minBit rate : 54 b/sCount of elements : 884Stream size : 24.1 KiB (0%)Title : SDHLanguage : EnglishDefault : NoForced : No[/spoiler

Dimensione: 3.66 GB

Categoria: SerieTv

ISCRIVETEVI AL FORUM

Presto ci saranno molte novità, registratevi gratuitamente al forum

Ricordiamo a tutti che su Cultura Digitale non sono presenti nessun file, questo torrent è di proprietà del Corsaro nero. pubblicato sul loro sito al seguente indirizzo: Outlander.S05E04.The.Company.We.Keep.1080p.WEBMux.ITA.ENG.DD5.1.x264-BlackBit.mkv -

COLLEGAMENTO AL TORRENT

Importante: è un link con magnet, si dovrebbe aprire da solo. Se vi esce errore 404 nel vostro computer non è installato un programma per torrent o l’estensione che fa aprire i file magnet.

 Copiate questo link
magnet:?xt=urn:btih:718b9ea073538ba49fcea1aab0134255e73315dc&dn=Outlander.S05E04.The.Company.We.Keep.1080p.WEBMux.ITA.ENG.DD5.1.x264-BlackBit.mkv&tr=udp%3A%2F%2Ftracker.coppersurfer.tk%3A6969%2Fannounce

Per firefox usare questa estensione – Per Chrome usare questa estensione
Oppure usare Torxh web browser

Se i link risultassero non raggiungibili o bloccati a livello DNS

Seguite la guida Su Questo Articolo : GUIDA COME CAMBIARE DNS