Passengers (2016) UHDRip 2160p HEVC HDR ITA DTS-HD MA 5.1 ENG TrueHD Atmos 7.1 PirateMKV.mkv – Torrent download

Ecco a voi il torrent Passengers (2016) UHDRip 2160p HEVC HDR ITA DTS-HD MA 5.1 ENG TrueHD Atmos 7.1 PirateMKV.mkv - proveniente dagli archivi di Torrent

Lo staff di Cultura digitale al fine di promuovere la cultura condivide i contenuti presenti sul sito il corsaro nero.

Nome del Torrent: Passengers (2016) UHDRip 2160p HEVC HDR ITA DTS-HD MA 5.1 ENG TrueHD Atmos 7.1 PirateMKV.mkv -

Descrizione del torrent: Passengersitolo: PassengersNazione: USAAnno: 2016Genere: Adventure, Drama, RomanceDurata: 116 minRegia: Morten TyldumCast: Jennifer Lawrence, Chris Pratt, Michael Sheen, Laurence FishburneUn veicolo spaziale con a bordo migliaia di persone in viaggio verso un pianeta distante che funge da colonia viene colpito da un malfunzionamento di una delle sue camere del sonno. Come risultato, Jim e Aurora si risvegliano con novant'anni d'anticipo rispetto al prestabilito. Mentre vivono la loro esistenza a bordo del veicolo, i due si innamorano e non sono capaci di negare l'attrazione che li lega fino a quando non scoprono che la navicella è in grave pericolo. Con la vita di oltre 5000 passeggeri in gioco, Jim e Aurora dovranno adoperarsi per salvare tutti.[spoiler[/spoiler[spoilerGeneralUnique ID : 59935524233921564876161800950571113707 (0x2D17297E6EDE1326533EFBD31ACC9CEB)Complete name : DownloadsOldPassengers UHDPassengers (2016) UHDRip 2160p HEVC HDR ITA DTS-HD MA 5.1 ENG TrueHD Atmos 7.1 PirateMKV.mkvFormat : MatroskaFormat version : Version 4File size : 14.5 GiBDuration : 1 h 56 minOverall bit rate mode : VariableOverall bit rate : 17.9 Mb/sMovie name : Passengers (2016) - PirateMKVEncoded date : UTC 2020-06-10 11:11:05Writing application : mkvmerge v47.0.0 ('Black Flag' 64-bitWriting library : libebml v1.3.10 + libmatroska v1.5.2 / Lavf58.42.100Copyright : Encoded by PirateMKVVideoID : 1ID in the original source medium : 4113 (0x1011)Format : HEVCFormat/Info : High Efficiency Video CodingFormat profile : Main [email protected]@HighHDR format : SMPTE ST 2086, HDR10 compatibleCodec ID : V_MPEGH/ISO/HEVCDuration : 1 h 56 minBit rate : 11.6 Mb/sWidth : 3 840 pixelsHeight : 1 604 pixelsDisplay aspect ratio : 2.40:1Frame rate mode : ConstantFrame rate : 23.976 (24000/1001) FPSColor space : YUVChroma subsampling : 4:2:0 (Type 2)Bit depth : 10 bitsBits/(Pixel*Frame) : 0.078Stream size : 9.39 GiB (65%)Writing library : x265 3.3+12-00b686782ad0:[Windows[GCC 9.3.1[64 bit 10bitEncoding settings : cpuid=1111039 / frame-threads=3 / numa-pools=8 / wpp / no-pmode / no-pme / no-psnr / no-ssim / log-level=2 / input-csp=1 / input-res=3840x1604 / interlace=0 / total-frames=0 / level-idc=51 / high-tier=1 / uhd-bd=0 / ref=5 / no-allow-non-conformance / repeat-headers / annexb / aud / hrd / info / hash=0 / no-temporal-layers / no-open-gop / min-keyint=1 / keyint=24 / gop-lookahead=0 / bframes=8 / b-adapt=2 / b-pyramid / bframe-bias=0 / rc-lookahead=40 / lookahead-slices=0 / scenecut=40 / hist-scenecut=0 / radl=0 / no-splice / no-intra-refresh / ctu=64 / min-cu-size=8 / no-rect / no-amp / max-tu-size=32 / tu-inter-depth=4 / tu-intra-depth=4 / limit-tu=0 / rdoq-level=0 / dynamic-rd=0.00 / no-ssim-rd / signhide / no-tskip / nr-intra=0 / nr-inter=0 / no-constrained-intra / no-strong-intra-smoothing / max-merge=3 / limit-refs=3 / limit-modes / me=2 / subme=5 / merange=57 / temporal-mvp / no-frame-dup / no-hme / weightp / weightb / no-analyze-src-pics / deblock=-3:-3 / no-sao / no-sao-non-deblock / rd=4 / selective-sao=0 / no-early-skip / rskip / fast-intra / no-tskip-fast / no-cu-lossless / b-intra / no-splitrd-skip / rdpenalty=0 / psy-rd=2.00 / psy-rdoq=0.00 / no-rd-refine / no-lossless / cbqpoffs=-3 / crqpoffs=-3 / rc=crf / crf=18.0 / qcomp=0.70 / qpstep=4 / stats-write=0 / stats-read=0 / vbv-maxrate=160000 / vbv-bufsize=160000 / vbv-init=0.9 / crf-max=0.0 / crf-min=0.0 / ipratio=1.40 / pbratio=1.30 / aq-mode=3 / aq-strength=0.70 / no-cutree / zone-count=0 / no-strict-cbr / qg-size=32 / no-rc-grain / qpmax=69 / qpmin=0 / no-const-vbv / sar=1 / overscan=0 / videoformat=5 / range=0 / colorprim=9 / transfer=16 / colormatrix=9 / chromaloc=1 / chromaloc-top=2 / chromaloc-bottom=2 / display-window=0 / master-display=G(13250,34500)B(7500,3000)R(34000,16000)WP(15635,16450)L(40000000,50) / cll=1529,380 / min-luma=0 / max-luma=1023 / log2-max-poc-lsb=8 / vui-timing-info / vui-hrd-info / slices=1 / no-opt-qp-pps / no-opt-ref-list-length-pps / no-multi-pass-opt-rps / scenecut-bias=0.05 / hist-threshold=0.01 / no-opt-cu-delta-qp / no-aq-motion / hdr10 / hdr10-opt / no-dhdr10-opt / no-idr-recovery-sei / analysis-reuse-level=0 / analysis-save-reuse-level=0 / analysis-load-reuse-level=0 / scale-factor=0 / refine-intra=0 / refine-inter=0 / refine-mv=1 / refine-ctu-distortion=0 / no-limit-sao / ctu-info=0 / no-lowpass-dct / refine-analysis-type=0 / copy-pic=1 / max-ausize-factor=1.0 / no-dynamic-refine / no-single-sei / no-hevc-aq / no-svt / no-field / qp-adaptation-range=1.00 / no-scenecut-aware-qpconformance-window-offsets / right=0 / bottom=0 / decoder-max-rate=0Language : EnglishDefault : YesForced : NoColor range : LimitedColor primaries : BT.2020Transfer characteristics : PQMatrix coefficients : BT.2020 non-constantMastering display color primaries : Display P3Mastering display luminance : min: 0.0050 cd/m2, max: 4000 cd/m2Maximum Content Light Level : 1529 cd/m2Maximum Frame-Average Light Level : 380 cd/m2Original source medium : Blu-rayAudio #1ID : 2Format : DTS XLLFormat/Info : Digital Theater SystemsCommercial name : DTS-HD Master AudioCodec ID : A_DTSDuration : 1 h 56 minBit rate mode : VariableBit rate : 2 191 kb/sChannel(s) : 6 channelsChannel layout : C L R Ls Rs LFESampling rate : 48.0 kHzFrame rate : 93.750 FPS (512 SPF)Bit depth : 16 bitsCompression mode : LosslessStream size : 1.78 GiB (12%)Title : DTS-HD MA 5.1Language : ItalianDefault : YesForced : NoAudio #2ID : 3Format : MLP FBA 16-chFormat/Info : Meridian Lossless Packing FBA with 16-channel presentationCommercial name : Dolby TrueHD with Dolby AtmosCodec ID : A_TRUEHDDuration : 1 h 56 minBit rate mode : VariableBit rate : 4 044 kb/sMaximum bit rate : 8 229 kb/sChannel(s) : 8 channelsChannel layout : L R C LFE Ls Rs Lb RbSampling rate : 48.0 kHzFrame rate : 1 200.000 FPS (40 SPF)Compression mode : LosslessStream size : 3.28 GiB (23%)Title : TrueHD Atmos 7.1Language : EnglishDefault : NoForced : NoNumber of dynamic objects : 11Bed channel count : 1 channelBed channel configuration : LFEText #1ID : 4Format : UTF-8Codec ID : S_TEXT/UTF8Codec ID/Info : UTF-8 Plain TextDuration : 1 h 45 minBit rate : 0 b/sCount of elements : 15Stream size : 380 Bytes (0%)Title : ForcedLanguage : ItalianDefault : YesForced : YesText #2ID : 5Format : UTF-8Codec ID : S_TEXT/UTF8Codec ID/Info : UTF-8 Plain TextDuration : 1 h 54 minBit rate : 45 b/sCount of elements : 1157Stream size : 38.1 KiB (0%)Title : NormalLanguage : ItalianDefault : NoForced : NoText #3ID : 6Format : UTF-8Codec ID : S_TEXT/UTF8Codec ID/Info : UTF-8 Plain TextDuration : 1 h 43 minBit rate : 48 b/sCount of elements : 1237Stream size : 36.6 KiB (0%)Title : NormalLanguage : EnglishDefault : NoForced : NoText #4ID : 7Format : UTF-8Codec ID : S_TEXT/UTF8Codec ID/Info : UTF-8 Plain TextDuration : 1 h 48 minBit rate : 57 b/sCount of elements : 1619Stream size : 45.4 KiB (0%)Title : SDHLanguage : EnglishDefault : NoForced : NoMenu00:00:00.000 : en:Chapter 0100:07:04.674 : en:Chapter 0200:14:38.210 : en:Chapter 0300:20:33.649 : en:Chapter 0400:25:06.338 : en:Chapter 0500:30:30.662 : en:Chapter 0600:40:47.987 : en:Chapter 0700:50:23.020 : en:Chapter 0800:57:28.945 : en:Chapter 0901:02:54.812 : en:Chapter 1001:10:47.159 : en:Chapter 1101:17:48.664 : en:Chapter 1201:25:17.028 : en:Chapter 1301:31:45.041 : en:Chapter 1401:37:53.242 : en:Chapter 1501:42:18.549 : en:Chapter 16[/spoiler

Dimensione: 14.51 GB

Categoria: BDRip

ISCRIVETEVI AL FORUM

Presto ci saranno molte novità, registratevi gratuitamente al forum

Ricordiamo a tutti che su Cultura Digitale non sono presenti nessun file, questo torrent è di proprietà del Corsaro nero. pubblicato sul loro sito al seguente indirizzo: Passengers (2016) UHDRip 2160p HEVC HDR ITA DTS-HD MA 5.1 ENG TrueHD Atmos 7.1 PirateMKV.mkv -

COLLEGAMENTO AL TORRENT

Importante: è un link con magnet, si dovrebbe aprire da solo. Se vi esce errore 404 nel vostro computer non è installato un programma per torrent o l’estensione che fa aprire i file magnet.

 Copiate questo link
magnet:?xt=urn:btih:f5287cc532bf3f64e2c9dbe286f3a9f52db2cd6d&dn=Passengers+%282016%29+UHDRip+2160p+HEVC+HDR+ITA+DTS-HD+MA+5.1+ENG+TrueHD+Atmos+7.1+PirateMKV.mkv&tr=udp%3A%2F%2Ftracker.coppersurfer.tk%3A6969%2Fannounce

Per firefox usare questa estensione – Per Chrome usare questa estensione
Oppure usare Torxh web browser

Se i link risultassero non raggiungibili o bloccati a livello DNS

Seguite la guida Su Questo Articolo : GUIDA COME CAMBIARE DNS