– Pennyworth.S01E04.Lady.Penelope.1080p.WEBMux.HEVC.ITA.ENG.x265-BlackBit.mkv – Torrent

Ecco a voi il torrent - Pennyworth.S01E04.Lady.Penelope.1080p.WEBMux.HEVC.ITA.ENG.x265-BlackBit.mkv - proveniente dagli archivi di Torrent

Lo staff di Cultura digitale al fine di promuovere la cultura condivide i contenuti presenti sul sito il corsaro nero.

Nome del Torrent: - Pennyworth.S01E04.Lady.Penelope.1080p.WEBMux.HEVC.ITA.ENG.x265-BlackBit.mkv -

Descrizione del torrent: Pennyworth - Stagione 1DATIPaese Stati Uniti d'AmericaAnno 2019 – in produzioneFormato serie TVGenere azione, avventura, thriller, drammaticoStagioni 1Episodi 10Durata 50-72 min (episodio)Lingua originale ingleseRapporto 16:9TRAMALa serie segue il leggendario maggiordomo della famiglia Wayne, Alfred Pennyworth, un ex soldato del SAS dell'Esercito Britannico, che forma una compagnia di sicurezza e va a lavorare con Thomas Wayne nella Londra degli anni '60.IMMAGINIREPORTGeneralUnique ID : 2722044782147390339327096712356239715 (0x20C3F2B5FD5737C11050B29075D1963)Complete name : C:UsersAdministratorVideosPennyworth S01Pennyworth.S01E01.Pilot.1080p.WEBMux.HEVC.ITA.ENG.x265-BlackBit.mkvFormat : MatroskaFormat version : Version 4File size : 1.64 GiBDuration : 1 h 11 minOverall bit rate : 3 265 kb/sEncoded date : UTC 2019-10-28 07:30:09Writing application : mkvmerge v38.0.0 ('The Silent Type' 64-bitWriting library : libebml v1.3.9 + libmatroska v1.5.2VideoID : 1Format : HEVCFormat/Info : High Efficiency Video CodingFormat profile : Main [email protected]@MainCodec ID : V_MPEGH/ISO/HEVCDuration : 1 h 11 minBit rate : 2 431 kb/sWidth : 1 920 pixelsHeight : 1 080 pixelsDisplay aspect ratio : 16:9Frame rate mode : ConstantFrame rate : 23.976 (24000/1001) FPSColor space : YUVChroma subsampling : 4:2:0Bit depth : 10 bitsBits/(Pixel*Frame) : 0.049Stream size : 1.22 GiB (74%)Writing library : x265 3.0_Au+32-a46ded2c1411:[Windows][MSVC 1921][64 bit] 10bitEncoding settings : cpuid=1111039 / frame-threads=3 / numa-pools=8 / wpp / no-pmode / no-pme / no-psnr / no-ssim / log-level=2 / input-csp=1 / input-res=1920x1080 / interlace=0 / total-frames=103169 / level-idc=0 / high-tier=1 / uhd-bd=0 / ref=4 / no-allow-non-conformance / no-repeat-headers / annexb / no-aud / no-hrd / info / hash=0 / no-temporal-layers / open-gop / min-keyint=23 / keyint=250 / gop-lookahead=0 / bframes=16 / b-adapt=2 / b-pyramid / bframe-bias=0 / rc-lookahead=90 / lookahead-slices=4 / scenecut=40 / radl=0 / no-splice / no-intra-refresh / ctu=64 / min-cu-size=8 / no-rect / no-amp / max-tu-size=32 / tu-inter-depth=3 / tu-intra-depth=3 / limit-tu=0 / rdoq-level=2 / dynamic-rd=0.00 / no-ssim-rd / signhide / no-tskip / nr-intra=0 / nr-inter=0 / no-constrained-intra / no-strong-intra-smoothing / max-merge=3 / limit-refs=1 / limit-modes / me=3 / subme=7 / merange=92 / temporal-mvp / weightp / no-weightb / no-analyze-src-pics / deblock=0:0 / no-sao / no-sao-non-deblock / rd=4 / early-skip / rskip / no-fast-intra / no-tskip-fast / no-cu-lossless / b-intra / no-splitrd-skip / rdpenalty=0 / psy-rd=1.10 / psy-rdoq=1.00 / no-rd-refine / no-lossless / cbqpoffs=0 / crqpoffs=0 / rc=crf / crf=19.8 / qcomp=0.60 / qpstep=4 / stats-write=0 / stats-read=0 / ipratio=1.40 / pbratio=1.30 / aq-mode=3 / aq-strength=1.00 / cutree / zone-count=0 / no-strict-cbr / qg-size=32 / no-rc-grain / qpmax=69 / qpmin=0 / no-const-vbv / sar=0 / overscan=0 / videoformat=5 / range=0 / colorprim=2 / transfer=2 / colormatrix=2 / chromaloc=0 / display-window=0cll=0,0 / min-luma=0 / max-luma=1023 / log2-max-poc-lsb=8 / vui-timing-info / vui-hrd-info / slices=1 / no-opt-qp-pps / no-opt-ref-list-length-pps / no-multi-pass-opt-rps / scenecut-bias=0.05 / no-opt-cu-delta-qp / no-aq-motion / no-hdr / no-hdr-opt / no-dhdr10-opt / no-idr-recovery-sei / analysis-reuse-level=5 / scale-factor=0 / refine-intra=0 / refine-inter=0 / refine-mv=0 / refine-ctu-distortion=0 / no-limit-sao / ctu-info=0 / no-lowpass-dct / refine-analysis-type=0 / copy-pic=1 / max-ausize-factor=1.0 / no-dynamic-refine / no-single-sei / no-hevc-aq / no-svt / no-field / qp-adaptation-range=1.00Default : YesForced : YesAudio #1ID : 2Format : AC-3Format/Info : Audio Coding 3Commercial name : Dolby DigitalCodec ID : A_AC3Duration : 1 h 11 minBit rate mode : ConstantBit rate : 192 kb/sChannel(s) : 2 channelsChannel layout : L RSampling rate : 48.0 kHzFrame rate : 31.250 FPS (1536 SPF)Compression mode : LossyStream size : 98.5 MiB (6%)Language : ItalianService kind : Complete MainDefault : YesForced : YesAudio #2ID : 3Format : E-AC-3Format/Info : Enhanced AC-3Commercial name : Dolby Digital PlusCodec ID : A_EAC3Duration : 1 h 11 minBit rate mode : ConstantBit rate : 640 kb/sChannel(s) : 6 channelsChannel layout : L R C LFE Ls RsSampling rate : 48.0 kHzFrame rate : 31.250 FPS (1536 SPF)Compression mode : LossyStream size : 328 MiB (20%)Language : EnglishService kind : Complete MainDefault : NoForced : NoText #1ID : 4Format : UTF-8Codec ID : S_TEXT/UTF8Codec ID/Info : UTF-8 Plain TextDuration : 1 h 9 minBit rate : 58 b/sCount of elements : 1061Stream size : 29.5 KiB (0%)Language : ItalianDefault : NoForced : NoText #2ID : 5Format : UTF-8Codec ID : S_TEXT/UTF8Codec ID/Info : UTF-8 Plain TextDuration : 1 h 10 minBit rate : 58 b/sCount of elements : 1102Stream size : 30.2 KiB (0%)Language : EnglishDefault : NoForced : NoText #3ID : 6Format : UTF-8Codec ID : S_TEXT/UTF8Codec ID/Info : UTF-8 Plain TextDuration : 1 h 10 minBit rate : 62 b/sCount of elements : 1208Stream size : 32.1 KiB (0%)Title : SDHLanguage : EnglishDefault : NoForced : NoCREDITI BlackBit

Dimensione: 1.45 GB

Categoria: SerieTv

ISCRIVETEVI AL FORUM

Presto ci saranno molte novità, registratevi gratuitamente al forum

Ricordiamo a tutti che su Cultura Digitale non sono presenti nessun file, questo torrent è di proprietà del Corsaro nero. pubblicato sul loro sito al seguente indirizzo: - Pennyworth.S01E04.Lady.Penelope.1080p.WEBMux.HEVC.ITA.ENG.x265-BlackBit.mkv -

COLLEGAMENTO AL TORRENT

Importante: è un link con magnet, si dovrebbe aprire da solo. Se vi esce errore 404 nel vostro computer non è installato un programma per torrent o l’estensione che fa aprire i file magnet.

 Copiate questo link
magnet:?xt=urn:btih:20addd70252ebfbd0935513c86af60a046262db6&dn=Pennyworth.S01E04.Lady.Penelope.1080p.WEBMux.HEVC.ITA.ENG.x265-BlackBit.mkv&tr=udp%3A%2F%2Ftracker.coppersurfer.tk%3A6969%2Fannounce

Per firefox usare questa estensione – Per Chrome usare questa estensione
Oppure usare Torxh web browser

Se i link risultassero non raggiungibili o bloccati a livello DNS

Seguite la guida Su Questo Articolo : GUIDA COME CAMBIARE DNS