Poldark.2015.S05E01-08.BDMux.ITA.ENG.x264-BlackBit – Torrent download

Ecco a voi il torrent Poldark.2015.S05E01-08.BDMux.ITA.ENG.x264-BlackBit - proveniente dagli archivi di Torrent

Lo staff di Cultura digitale al fine di promuovere la cultura condivide i contenuti presenti sul sito il corsaro nero.

Nome del Torrent: Poldark.2015.S05E01-08.BDMux.ITA.ENG.x264-BlackBit -

Descrizione del torrent: Poldark - Stagione 5DATITitolo originale PoldarkPaese Regno UnitoAnno 2015-2019Formato serie TVGenere in costume, sentimentaleStagioni 5Episodi 43Durata 60 min (episodio)Lingua originale ingleseRapporto 16:9TRAMAAlla fine del XVIII secolo, Ross Poldark torna alle sue miniere di rame in Cornovaglia dopo aver combattuto per il suo Paese nella Guerra d'indipendenza americana per tre anni, lasciando dietro di sé la sua amata Elizabeth. Al suo ritorno, scopre che molte cose sono cambiate: suo padre è morto, il suo patrimonio è in rovina e Elizabeth è diventata la promessa sposa di suo cugino Francis Poldark. Bisognoso di aiuto, assume una sguattera, Demelza, dopo averla salvata da un pestaggio. Deciso a rimettere in piedi la sua miniera di rame, l'uomo deve affrontare a più riprese le angherie di George Warleggan, ricco banchiere del luogo.IMMAGINIREPORTGeneralUnique ID : 71612550911849934242718755793655281175 (0x35E0135BCCD4E8C01D721DC2925BB617)Complete name : C:UsersAdministratorVideosPoldark S05Poldark.2015.S05E01.Episodio.Uno.BDMux.ITA.ENG.x264-BlackBit.mkvFormat : MatroskaFormat version : Version 4File size : 394 MiBDuration : 57 min 53 sOverall bit rate : 952 kb/sEncoded date : UTC 2020-01-03 22:35:38Writing application : mkvmerge v41.0.0 ('Smarra' 64-bitWriting library : libebml v1.3.9 + libmatroska v1.5.2VideoID : 1Format : AVCFormat/Info : Advanced Video CodecFormat profile : [email protected] settings : CABAC / 5 Ref FramesFormat settings, CABAC : YesFormat settings, Reference : 5 framesCodec ID : V_MPEG4/ISO/AVCDuration : 57 min 53 sBit rate : 640 kb/sWidth : 720 pixelsHeight : 404 pixelsDisplay aspect ratio : 16:9Frame rate mode : ConstantFrame rate : 25.000 FPSColor space : YUVChroma subsampling : 4:2:0Bit depth : 8 bitsScan type : ProgressiveBits/(Pixel*Frame) : 0.088Stream size : 265 MiB (67%)Writing library : x264 core 158 r2984 3759fcbEncoding settings : cabac=1 / ref=5 / deblock=1:-2:-2 / analyse=0x3:0x113 / me=umh / subme=8 / psy=1 / psy_rd=1.00:0.00 / mixed_ref=1 / me_range=16 / chroma_me=1 / trellis=2 / 8x8dct=1 / cqm=0 / deadzone=21,11 / fast_pskip=1 / chroma_qp_offset=-2 / threads=13 / lookahead_threads=2 / sliced_threads=0 / nr=0 / decimate=1 / interlaced=0 / bluray_compat=0 / constrained_intra=0 / bframes=3 / b_pyramid=2 / b_adapt=1 / b_bias=0 / direct=3 / weightb=1 / open_gop=0 / weightp=2 / keyint=250 / keyint_min=25 / scenecut=40 / intra_refresh=0 / rc_lookahead=50 / rc=crf / mbtree=1 / crf=19.0 / qcomp=0.60 / qpmin=0 / qpmax=69 / qpstep=4 / ip_ratio=1.40 / aq=1:0.70Default : YesForced : YesColor range : LimitedMatrix coefficients : BT.709Audio #1ID : 2Format : AC-3Format/Info : Audio Coding 3Commercial name : Dolby DigitalCodec ID : A_AC3Duration : 57 min 49 sBit rate mode : ConstantBit rate : 192 kb/sChannel(s) : 2 channelsChannel layout : L RSampling rate : 48.0 kHzFrame rate : 31.250 FPS (1536 SPF)Compression mode : LossyStream size : 79.4 MiB (20%)Language : ItalianService kind : Complete MainDefault : YesForced : YesAudio #2ID : 3Format : AAC LCFormat/Info : Advanced Audio Codec Low ComplexityCodec ID : A_AAC-2Duration : 57 min 53 sBit rate : 117 kb/sChannel(s) : 2 channelsChannel layout : L RSampling rate : 48.0 kHzFrame rate : 46.875 FPS (1024 SPF)Compression mode : LossyDelay relative to video : 9 msStream size : 48.6 MiB (12%)Language : EnglishDefault : NoForced : NoText #1ID : 4Format : UTF-8Codec ID : S_TEXT/UTF8Codec ID/Info : UTF-8 Plain TextDuration : 57 min 12 sBit rate : 0 b/sCount of elements : 4Stream size : 119 Bytes (0%)Language : ItalianDefault : YesForced : YesText #2ID : 5Format : UTF-8Codec ID : S_TEXT/UTF8Codec ID/Info : UTF-8 Plain TextDuration : 57 min 18 sBit rate : 60 b/sCount of elements : 770Stream size : 25.4 KiB (0%)Language : ItalianDefault : NoForced : NoMenu00:00:00.000 : en:Chapter 0100:13:59.880 : en:Chapter 0200:31:19.960 : en:Chapter 0300:45:02.520 : en:Chapter 04CREDITI BlackBit

Dimensione: 3.19 GB

Categoria: SerieTv

ISCRIVETEVI AL FORUM

Presto ci saranno molte novità, registratevi gratuitamente al forum

Ricordiamo a tutti che su Cultura Digitale non sono presenti nessun file, questo torrent è di proprietà del Corsaro nero. pubblicato sul loro sito al seguente indirizzo: Poldark.2015.S05E01-08.BDMux.ITA.ENG.x264-BlackBit -

COLLEGAMENTO AL TORRENT

Importante: è un link con magnet, si dovrebbe aprire da solo. Se vi esce errore 404 nel vostro computer non è installato un programma per torrent o l’estensione che fa aprire i file magnet.

 Copiate questo link
magnet:?xt=urn:btih:5cb76872eb1a36252e34592df957dc5f0a2efb5f&dn=Poldark.2015.S05E01-08.BDMux.ITA.ENG.x264-BlackBit&tr=udp%3A%2F%2Ftracker.coppersurfer.tk%3A6969%2Fannounce

Per firefox usare questa estensione – Per Chrome usare questa estensione
Oppure usare Torxh web browser

Se i link risultassero non raggiungibili o bloccati a livello DNS

Seguite la guida Su Questo Articolo : GUIDA COME CAMBIARE DNS