Snowpiercer.S01E06.Trouble.Comes.Sideways.1080p.WEBRip.ITA.ENG.DD5.1.x264-BlackBit.mkv – Torrent download

Ecco a voi il torrent Snowpiercer.S01E06.Trouble.Comes.Sideways.1080p.WEBRip.ITA.ENG.DD5.1.x264-BlackBit.mkv - proveniente dagli archivi di Torrent

Lo staff di Cultura digitale al fine di promuovere la cultura condivide i contenuti presenti sul sito il corsaro nero.

Nome del Torrent: Snowpiercer.S01E06.Trouble.Comes.Sideways.1080p.WEBRip.ITA.ENG.DD5.1.x264-BlackBit.mkv -

Descrizione del torrent: Snowpiercer - Stagione 1itolo originale SnowpiercerPaese Stati Uniti d'AmericaAnno 2020 – in produzioneFormato serie TVGenere fantascienza, drammatico, thriller, post apocalitticoStagioni 1Episodi 10Lingua originale ingleseRapporto 16:9Anno 2027. Il mondo è divenuto un immenso deserto di ghiaccio in seguito ad un tentativo fallito di porre rimedio al surriscaldamento globale. Gli unici sopravvissuti si trovano a bordo dello Snowpiercer, un rivoluzionario treno a moto perpetuo che percorre un tragitto completo ogni anno. Mentre la vita scorre agiata e nel lusso nei vagoni di testa, in quelli di coda malnutrizione e povertà regnano sovrani, ma la rivolta è dietro l'angolo.[spoiler[/spoiler[spoilerGeneralUnique ID : 233874062367244828566076012043003608343 (0xAFF28188BF729331497967FA9679BD17)Complete name : C:UsersAdministratorVideosSnowpiercer S01Snowpiercer.S01E01.First.the.Weather.Changed.1080p.WEBRip.ITA.ENG.DD5.1.x264-BlackBit.mkvFormat : MatroskaFormat version : Version 4File size : 3.64 GiBDuration : 51 min 20 sOverall bit rate : 10.1 Mb/sEncoded date : UTC 2020-05-25 07:57:07Writing application : mkvmerge v46.0.0 ('No Deeper Escape' 64-bitWriting library : libebml v1.3.10 + libmatroska v1.5.2VideoID : 1Format : AVCFormat/Info : Advanced Video CodecFormat profile : [email protected] settings : CABAC / 4 Ref FramesFormat settings, CABAC : YesFormat settings, Reference : 4 framesCodec ID : V_MPEG4/ISO/AVCDuration : 51 min 20 sBit rate mode : ConstantBit rate : 8 863 kb/sNominal bit rate : 10 000 kb/sWidth : 1 920 pixelsHeight : 1 080 pixelsDisplay aspect ratio : 16:9Frame rate mode : ConstantFrame rate : 23.976 (24000/1001) FPSColor space : YUVChroma subsampling : 4:2:0Bit depth : 8 bitsScan type : ProgressiveBits/(Pixel*Frame) : 0.178Stream size : 3.18 GiB (87%)Default : YesForced : YesColor range : LimitedColor primaries : BT.709Transfer characteristics : BT.709Matrix coefficients : BT.709Audio #1ID : 2Format : AC-3Format/Info : Audio Coding 3Commercial name : Dolby DigitalCodec ID : A_AC3Duration : 51 min 20 sBit rate mode : ConstantBit rate : 640 kb/sChannel(s) : 6 channelsChannel layout : L R C LFE Ls RsSampling rate : 48.0 kHzFrame rate : 31.250 FPS (1536 SPF)Compression mode : LossyStream size : 235 MiB (6%)Language : ItalianService kind : Complete MainDefault : YesForced : YesAudio #2ID : 3Format : E-AC-3Format/Info : Enhanced AC-3Commercial name : Dolby Digital PlusCodec ID : A_EAC3Duration : 51 min 20 sBit rate mode : ConstantBit rate : 640 kb/sChannel(s) : 6 channelsChannel layout : L R C LFE Ls RsSampling rate : 48.0 kHzFrame rate : 31.250 FPS (1536 SPF)Compression mode : LossyStream size : 235 MiB (6%)Language : EnglishService kind : Complete MainDefault : NoForced : NoText #1ID : 4Format : UTF-8Codec ID : S_TEXT/UTF8Codec ID/Info : UTF-8 Plain TextDuration : 47 min 39 sBit rate : 0 b/sCount of elements : 8Stream size : 95.0 Bytes (0%)Language : ItalianDefault : YesForced : YesText #2ID : 5Format : UTF-8Codec ID : S_TEXT/UTF8Codec ID/Info : UTF-8 Plain TextDuration : 51 min 5 sBit rate : 54 b/sCount of elements : 618Stream size : 20.4 KiB (0%)Language : ItalianDefault : NoForced : NoText #3ID : 6Format : UTF-8Codec ID : S_TEXT/UTF8Codec ID/Info : UTF-8 Plain TextDuration : 50 min 38 sBit rate : 58 b/sCount of elements : 783Stream size : 21.8 KiB (0%)Language : EnglishDefault : NoForced : NoText #4ID : 7Format : UTF-8Codec ID : S_TEXT/UTF8Codec ID/Info : UTF-8 Plain TextDuration : 51 min 10 sBit rate : 65 b/sCount of elements : 1019Stream size : 24.7 KiB (0%)Title : SDHLanguage : EnglishDefault : NoForced : No[/spoiler

Dimensione: 2.93 GB

Categoria: SerieTv

ISCRIVETEVI AL FORUM

Presto ci saranno molte novità, registratevi gratuitamente al forum

Ricordiamo a tutti che su Cultura Digitale non sono presenti nessun file, questo torrent è di proprietà del Corsaro nero. pubblicato sul loro sito al seguente indirizzo: Snowpiercer.S01E06.Trouble.Comes.Sideways.1080p.WEBRip.ITA.ENG.DD5.1.x264-BlackBit.mkv -

COLLEGAMENTO AL TORRENT

Importante: è un link con magnet, si dovrebbe aprire da solo. Se vi esce errore 404 nel vostro computer non è installato un programma per torrent o l’estensione che fa aprire i file magnet.

 Copiate questo link
magnet:?xt=urn:btih:4c37f3638f66d8370d32e301ce9ec6462973b1aa&dn=Snowpiercer.S01E06.Trouble.Comes.Sideways.1080p.WEBRip.ITA.ENG.DD5.1.x264-BlackBit.mkv&tr=udp%3A%2F%2Ftracker.coppersurfer.tk%3A6969%2Fannounce

Per firefox usare questa estensione – Per Chrome usare questa estensione
Oppure usare Torxh web browser

Se i link risultassero non raggiungibili o bloccati a livello DNS

Seguite la guida Su Questo Articolo : GUIDA COME CAMBIARE DNS