Space.Force.S01E01.The.Launch.1080p.WEBRip.ITA.ENG.DDP5.1.x264-BlackBit.mkv – Torrent download

Ecco a voi il torrent Space.Force.S01E01.The.Launch.1080p.WEBRip.ITA.ENG.DDP5.1.x264-BlackBit.mkv - proveniente dagli archivi di Torrent

Lo staff di Cultura digitale al fine di promuovere la cultura condivide i contenuti presenti sul sito il corsaro nero.

Nome del Torrent: Space.Force.S01E01.The.Launch.1080p.WEBRip.ITA.ENG.DDP5.1.x264-BlackBit.mkv -

Descrizione del torrent: Clicca qua per ingrandire questa immagine[size=36pt]Space Force - Stagione 1[/size]Clicca qua per ingrandire questa immagineTitolo originale Space ForcePaese Stati Uniti d'AmericaAnno 2020 – in produzioneFormato serie TVGenere commediaStagioni 1Episodi 10Durata 30 min (episodio)Lingua originale ingleseRapporto 2,20:1Clicca qua per ingrandire questa immagineLa Casa Bianca richiede all'esercito degli Stati Uniti di fondare l'aeronautica spaziale, che si chiamerà Space Force.Clicca qua per ingrandire questa immagine[spoiler][/spoiler]Clicca qua per ingrandire questa immagine[spoiler]GeneralUnique ID : 325016410369052273013013650395739819576 (0xF483E23B206ADFF114923741F1D18E3Complete name : C:UsersAdministratorVideosSpace Force S01Space.Force.S01E01.The.Launch.1080p.WEBRip.ITA.ENG.DDP5.1.x264-BlackBit.mkvFormat : MatroskaFormat version : Version 4File size : 1.39 GiBDuration : 36 min 38 sOverall bit rate mode : VariableOverall bit rate : 5 418 kb/sEncoded date : UTC 2020-05-29 07:09:27Writing application : mkvmerge v46.0.0 ('No Deeper Escape' 64-bitWriting library : libebml v1.3.10 + libmatroska v1.5.2VideoID : 1Format : AVCFormat/Info : Advanced Video CodecFormat profile : [email protected] settings : CABAC / 3 Ref FramesFormat settings, CABAC : YesFormat settings, Reference : 3 framesCodec ID : V_MPEG4/ISO/AVCDuration : 36 min 38 sBit rate mode : VariableBit rate : 4 008 kb/sNominal bit rate : 4 220 kb/sMaximum bit rate : 6 330 kb/sWidth : 1 920 pixelsHeight : 1 080 pixelsDisplay aspect ratio : 16:9Frame rate mode : ConstantFrame rate : 23.976 (24000/1001) FPSColor space : YUVChroma subsampling : 4:2:0Bit depth : 8 bitsScan type : ProgressiveBits/(Pixel*Frame) : 0.081Stream size : 1.03 GiB (74%)Writing library : x264 core 148 r2717 0d2410dEncoding settings : cabac=1 / ref=3 / deblock=1:0:0 / analyse=0x1:0x111 / me=umh / subme=10 / psy=1 / psy_rd=1.00:0.00 / mixed_ref=1 / me_range=24 / chroma_me=1 / trellis=2 / 8x8dct=0 / cqm=0 / deadzone=21,11 / fast_pskip=1 / chroma_qp_offset=-2 / threads=8 / lookahead_threads=1 / sliced_threads=0 / nr=0 / decimate=1 / interlaced=0 / bluray_compat=0 / stitchable=1 / constrained_intra=0 / bframes=2 / b_pyramid=0 / b_adapt=2 / b_bias=0 / direct=3 / weightb=1 / open_gop=0 / weightp=2 / keyint=250 / keyint_min=23 / scenecut=0 / intra_refresh=0 / rc_lookahead=48 / rc=2pass / mbtree=1 / bitrate=4220 / ratetol=1.0 / qcomp=0.50 / qpmin=6 / qpmax=51 / qpstep=4 / cplxblur=20.0 / qblur=0.5 / vbv_maxrate=6330 / vbv_bufsize=8440 / nal_hrd=vbr / filler=0 / ip_ratio=1.40 / aq=1:1.00Default : YesForced : YesAudio #1ID : 2Format : E-AC-3Format/Info : Enhanced AC-3Commercial name : Dolby Digital PlusCodec ID : A_EAC3Duration : 36 min 38 sBit rate mode : ConstantBit rate : 640 kb/sChannel(s) : 6 channelsChannel layout : L R C LFE Ls RsSampling rate : 48.0 kHzFrame rate : 31.250 FPS (1536 SPF)Compression mode : LossyStream size : 168 MiB (12%)Language : ItalianService kind : Complete MainDefault : YesForced : YesAudio #2ID : 3Format : E-AC-3 JOCFormat/Info : Enhanced AC-3 with Joint Object CodingCommercial name : Dolby Digital Plus with Dolby AtmosCodec ID : A_EAC3Duration : 36 min 38 sBit rate mode : ConstantBit rate : 768 kb/sChannel(s) : 6 channelsChannel layout : L R C LFE Ls RsSampling rate : 48.0 kHzFrame rate : 31.250 FPS (1536 SPF)Compression mode : LossyStream size : 201 MiB (14%)Title : EnglishLanguage : EnglishService kind : Complete MainDefault : NoForced : NoComplexity index : 16Number of dynamic objects : 15Bed channel count : 1 channelBed channel configuration : LFEText #1ID : 4Format : UTF-8Codec ID : S_TEXT/UTF8Codec ID/Info : UTF-8 Plain TextDuration : 35 min 10 sBit rate : 3 b/sCount of elements : 25Stream size : 853 Bytes (0%)Language : ItalianDefault : YesForced : YesText #2ID : 5Format : UTF-8Codec ID : S_TEXT/UTF8Codec ID/Info : UTF-8 Plain TextDuration : 35 min 10 sBit rate : 73 b/sCount of elements : 575Stream size : 18.8 KiB (0%)Title : ItalianLanguage : ItalianDefault : NoForced : NoText #3ID : 6Format : UTF-8Codec ID : S_TEXT/UTF8Codec ID/Info : UTF-8 Plain TextDuration : 35 min 10 sBit rate : 122 b/sCount of elements : 724Stream size : 31.6 KiB (0%)Title : EnglishLanguage : EnglishDefault : NoForced : No[/spoiler]

Dimensione: 1.39 GB

Categoria: SerieTv

ISCRIVETEVI AL FORUM

Presto ci saranno molte novità, registratevi gratuitamente al forum

Ricordiamo a tutti che su Cultura Digitale non sono presenti nessun file, questo torrent è di proprietà del Corsaro nero. pubblicato sul loro sito al seguente indirizzo: Space.Force.S01E01.The.Launch.1080p.WEBRip.ITA.ENG.DDP5.1.x264-BlackBit.mkv -

COLLEGAMENTO AL TORRENT

Importante: è un link con magnet, si dovrebbe aprire da solo. Se vi esce errore 404 nel vostro computer non è installato un programma per torrent o l’estensione che fa aprire i file magnet.

 Copiate questo link
magnet:?xt=urn:btih:4905e62b9a776ff7be8b13f6fa8e1480fb533d57&dn=Space.Force.S01E01.The.Launch.1080p.WEBRip.ITA.ENG.DDP5.1.x264-BlackBit.mkv&tr=udp%3A%2F%2Ftracker.coppersurfer.tk%3A6969%2Fannounce

Per firefox usare questa estensione – Per Chrome usare questa estensione
Oppure usare Torxh web browser

Se i link risultassero non raggiungibili o bloccati a livello DNS

Seguite la guida Su Questo Articolo : GUIDA COME CAMBIARE DNS