Spinning.Out.S01E07.Healing.Times.May.Vary.1080p.NF.WEBRip.HEVC.HDR.ITA.ENG.DDP5.1.x265-BlackBit.mkv – Torrent download

Ecco a voi il torrent Spinning.Out.S01E07.Healing.Times.May.Vary.1080p.NF.WEBRip.HEVC.HDR.ITA.ENG.DDP5.1.x265-BlackBit.mkv - proveniente dagli archivi di Torrent

Lo staff di Cultura digitale al fine di promuovere la cultura condivide i contenuti presenti sul sito il corsaro nero.

Nome del Torrent: Spinning.Out.S01E07.Healing.Times.May.Vary.1080p.NF.WEBRip.HEVC.HDR.ITA.ENG.DDP5.1.x265-BlackBit.mkv -

Descrizione del torrent: Spinning Out - Stagione 1DATIPaese USAAnno 2020 – in produzioneFormato serie TVGenere DramaStagioni 1Episodi 10Lingua originale ingleseTRAMASpinning Out ha per protagonista Kat Baker (Kaya Scodelario), una giovane promessa del pattinaggio sul ghiaccio che si appresta a voltare le spalle alla competizione dopo che una disastrosa caduta ha messo a rischio la sua carriera agonistica. Kat coglie al volo la possibilità di di partecipare alle Olimpiadi, ma a rischio di perdere tutto.IMMAGINIREPORTGeneralUnique ID : 138664445760115797981994412997433660665 (0x6851CD0344CAAABFF73731221D6494F9)Complete name : C:UsersAdministratorVideosSpinning Out S01Spinning.Out.S01E01.Now.Entering.Sun.Valley.1080p.NF.WEBRip.HEVC.HDR.ITA.ENG.DDP5.1.x265-BlackBit.mkvFormat : MatroskaFormat version : Version 4File size : 2.58 GiBDuration : 53 min 49 sOverall bit rate : 6 871 kb/sEncoded date : UTC 2020-01-01 16:26:00Writing application : mkvmerge v41.0.0 ('Smarra' 64-bitWriting library : libebml v1.3.9 + libmatroska v1.5.2VideoID : 1Format : HEVCFormat/Info : High Efficiency Video CodingFormat profile : Main [email protected]@MainHDR format : SMPTE ST 2086, HDR10 compatibleCodec ID : V_MPEGH/ISO/HEVCDuration : 53 min 14 sBit rate : 5 521 kb/sWidth : 1 920 pixelsHeight : 1 080 pixelsDisplay aspect ratio : 16:9Frame rate mode : ConstantFrame rate : 23.976 (24000/1001) FPSColor space : YUVChroma subsampling : 4:2:0 (Type 2)Bit depth : 10 bitsBits/(Pixel*Frame) : 0.111Stream size : 2.05 GiB (79%)Default : YesForced : YesColor range : LimitedColor primaries : BT.2020Transfer characteristics : PQMatrix coefficients : BT.2020 non-constantMastering display color pri : Display P3Mastering display luminance : min: 0.0000 cd/m2, max: 1000 cd/m2Maximum Content Light Level : 983 cd/m2Maximum Frame-Average Light : 227 cd/m2Audio #1ID : 2Format : E-AC-3Format/Info : Enhanced AC-3Commercial name : Dolby Digital PlusCodec ID : A_EAC3Duration : 53 min 49 sBit rate mode : ConstantBit rate : 640 kb/sChannel(s) : 6 channelsChannel layout : L R C LFE Ls RsSampling rate : 48.0 kHzFrame rate : 31.250 FPS (1536 SPF)Compression mode : LossyStream size : 246 MiB (9%)Language : ItalianService kind : Complete MainDefault : YesForced : YesAudio #2ID : 3Format : E-AC-3 JOCFormat/Info : Enhanced AC-3 with Joint Object CodingCommercial name : Dolby Digital Plus with Dolby AtmosCodec ID : A_EAC3Duration : 53 min 49 sBit rate mode : ConstantBit rate : 768 kb/sChannel(s) : 6 channelsChannel layout : L R C LFE Ls RsSampling rate : 48.0 kHzFrame rate : 31.250 FPS (1536 SPF)Compression mode : LossyStream size : 296 MiB (11%)Language : EnglishService kind : Complete MainDefault : NoForced : NoComplexity index : 16Number of dynamic objects : 15Bed channel count : 1 channelBed channel configuration : LFEText #1ID : 4Format : UTF-8Codec ID : S_TEXT/UTF8Codec ID/Info : UTF-8 Plain TextDuration : 52 min 56 sBit rate : 0 b/sCount of elements : 7Stream size : 220 Bytes (0%)Language : ItalianDefault : YesForced : YesText #2ID : 5Format : UTF-8Codec ID : S_TEXT/UTF8Codec ID/Info : UTF-8 Plain TextDuration : 52 min 56 sBit rate : 37 b/sCount of elements : 572Stream size : 14.6 KiB (0%)Language : ItalianDefault : NoForced : NoText #3ID : 6Format : UTF-8Codec ID : S_TEXT/UTF8Codec ID/Info : UTF-8 Plain TextDuration : 52 min 49 sBit rate : 58 b/sCount of elements : 741Stream size : 22.7 KiB (0%)Title : SDHLanguage : EnglishDefault : NoForced : NoCREDITI BlackBit

Dimensione: 2.28 GB

Categoria: SerieTv

ISCRIVETEVI AL FORUM

Presto ci saranno molte novità, registratevi gratuitamente al forum

Ricordiamo a tutti che su Cultura Digitale non sono presenti nessun file, questo torrent è di proprietà del Corsaro nero. pubblicato sul loro sito al seguente indirizzo: Spinning.Out.S01E07.Healing.Times.May.Vary.1080p.NF.WEBRip.HEVC.HDR.ITA.ENG.DDP5.1.x265-BlackBit.mkv -

COLLEGAMENTO AL TORRENT

Importante: è un link con magnet, si dovrebbe aprire da solo. Se vi esce errore 404 nel vostro computer non è installato un programma per torrent o l’estensione che fa aprire i file magnet.

 Copiate questo link
magnet:?xt=urn:btih:9805365da6cb6b3bff1a618297a25c158b2159ec&dn=Spinning.Out.S01E07.Healing.Times.May.Vary.1080p.NF.WEBRip.HEVC.HDR.ITA.ENG.DDP5.1.x265-BlackBit.mkv&tr=udp%3A%2F%2Ftracker.coppersurfer.tk%3A6969%2Fannounce

Per firefox usare questa estensione – Per Chrome usare questa estensione
Oppure usare Torxh web browser

Se i link risultassero non raggiungibili o bloccati a livello DNS

Seguite la guida Su Questo Articolo : GUIDA COME CAMBIARE DNS