– Star Trek: Enterprise (2001) s01-s04 ITA 720p h265 by Panez – Torrent

Ecco a voi il torrent - Star Trek: Enterprise (2001) s01-s04 ITA 720p h265 by Panez - proveniente dagli archivi di Torrent

Lo staff di Cultura digitale al fine di promuovere la cultura condivide i contenuti presenti sul sito il corsaro nero.

Nome del Torrent: - Star Trek: Enterprise (2001) s01-s04 ITA 720p h265 by Panez -

Descrizione del torrent: NOTA: posso dedicare una banda costante al seed ma molto bassa.I pezzi sono puliti, privi di fronzoli, ben compressi, pronti per andare direttamente nella libreria: RIMANETE IN SEED!“Star Trek: Enterprise” è la quinta serie televisiva ambientata nell’universo fantascientifico di Star Trek (la sesta, considerando anche la serie animata). Il primo episodio fu trasmesso dal network statunitense UPN il 26 settembre 2001, inizialmente con il semplice titolo di Enterprise, mentre a partire dalla terza stagione la serie assunse la definitiva denominazione di “Star Trek: Enterprise”, similmente a quelle che l’avevano preceduta.La serie, prodotta per quattro stagioni, ha vinto vari premi, tra cui quattro Emmy.Clicca qua per ingrandire questa immagineEpisodi:2001 Stagione 01: 01-02. Prima missione 03. Vincere la paura 04. Strani nuovi mondi 05. Inatteso 06. Terra Nova 07. Il caso andoriano 08. Rompere il ghiaccio 09. Una questione di civiltà 10. I figli dello spazio 11. Guerra temporale 12. Nemico silenzioso 13. Caro dottore 14. Una nave alla deriva 15. Le ombre di P’Jem 16. Navetta uno 17. La fusione 18. La caccia 19. Acquisizione 20. Oasi 21. Prigionieri 22. Vox sola 23. La caduta di un eroe 24. Attraverso il deserto 25. Due giorni e due notti 26. Onda d’urto (1)2002 Stagione 02: 01. Onda d’urto (2) 02. Carbon Creek 03. Campo minato 04. Sosta forzata 05. Una notte in infermeria 06. I predoni 07. Il Settimo 08. Il comunicatore 09. La singolarità 10. Punto di non ritorno 11. Il carico prezioso 12. La passerella 13. Il mio nemico 14. La sindrome 15. La tregua 16. Il mistero della navetta 17. Canamar 18. Lo scambio 19. Il processo 20. La Horizon 21. Il recupero 22. Il cogenitore 23. Rigenerazione 24. Il primo volo 25. La taglia 26. Attacco alla Terra2003 Stagione 03: 01. Gli Xindi 02. L’anomalia 03. Estinzione 04. Rajiin 05. Effetti deleteri 06. Esilio 07. La Kemocite 08. Il crepuscolo del tempo 09. Cowboy nello spazio 10. Similitudini 11. Carpenter Street 12. Il dominio prescelto 13. Il test 14. Lo stratagemma 15. Il messaggero 16. Ordini del medico 17. Il nido 18. Azati primo 19. Danni alla nave 20. I dimenticati 21. Un tuffo nel futuro 22. Il consiglio degli Xindi 23. Conto alla rovescia 24. Ora zero2004 Stagione 04: 01. Nuovo fronte temporale (1) 02. Nuovo fronte temporale (2) 03. Ritorno a casa 04. Terra di confine 05. Stazione 12 06. I potenziati 07. La fornace 08. Risvegli 09. Il Kir’shara 10. Dedalo 11. Gli osservatori 12. Babel 13. Fragile alleanza 14. Gli Aenar 15. Virus letale 16. Divergenze 17. Le schiave di Orione 18. In uno specchio oscuro (1) 19. In uno specchio oscuro (2) 20. Demoni 21. Lotta per la Terra 22. Federazione prossima frontieraFormat : MPEG-4Format profile : Base Media / Version 2Codec ID : mp42 (isom/iso2/mp41)File size : 172 MiBDuration : 44 min 20 sOverall bit rate mode : VariableOverall bit rate : 544 kb/sVideoID : 1Format : HEVCFormat/Info : High Efficiency Video CodingFormat profile : [email protected]@MainCodec ID : hvc1Codec ID/Info : High Efficiency Video CodingDuration : 44 min 20 sBit rate : 481 kb/sWidth : 1 280 pixelsHeight : 720 pixelsDisplay aspect ratio : 16:9Frame rate mode : VariableFrame rate : 23.976 (24000/1001) FPSMinimum frame rate : 23.974 FPSMaximum frame rate : 23.981 FPSColor space : YUVChroma subsampling : 4:2:0Bit depth : 8 bitsBits/(Pixel*Frame) : 0.022Stream size : 152 MiB (88%)Writing library : x265 2.6:[Mac OS X][clang 9.1.0][64 bit] 8bit+10bit+12bitColor range : LimitedColor primaries : BT.709Transfer characteristics : BT.709Matrix coefficients : BT.709Menus : 3AudioID : 2Format : AACFormat/Info : Advanced Audio CodecFormat profile : HE-AAC / LCCodec ID : 40Duration : 44 min 19 sBit rate mode : VariableBit rate : 57.6 kb/sChannel(s) : 2 channelsChannel positions : Front: L RSampling rate : 48.0 kHz / 24.0 kHzFrame rate : 23.438 FPS (1024 spf)Compression mode : LossyStream size : 18.3 MiB (11%)Title : Stereo / StereoLanguage : ItalianDefault : YesAlternate group : 1Menus : 3MenuID : 3Codec ID : textDuration : 44 min 20 sLanguage : EnglishBit rate mode : CBRMenu For : 1,200:00:00.000 : Chapter 100:02:36.010 : Chapter 200:13:52.144 : Chapter 300:22:55.353 : Chapter 400:33:22.021 : Chapter 500:43:28.877 : Chapter 6

Dimensione: 16.02 GB

Categoria: SerieTv

ISCRIVETEVI AL FORUM

Presto ci saranno molte novità, registratevi gratuitamente al forum

Ricordiamo a tutti che su Cultura Digitale non sono presenti nessun file, questo torrent è di proprietà del Corsaro nero. pubblicato sul loro sito al seguente indirizzo: - Star Trek: Enterprise (2001) s01-s04 ITA 720p h265 by Panez -

COLLEGAMENTO AL TORRENT

Importante: è un link con magnet, si dovrebbe aprire da solo. Se vi esce errore 404 nel vostro computer non è installato un programma per torrent o l’estensione che fa aprire i file magnet.

 Copiate questo link
magnet:?xt=urn:btih:d5a36d33dabd2daf7af0bbfdb68572d3638cc1d0&dn=Star+Trek%3A+Enterprise+%282001%29+s01-s04+ITA+720p+h265+by+Panez&tr=udp%3A%2F%2Ftracker.coppersurfer.tk%3A6969%2Fannounce

Per firefox usare questa estensione – Per Chrome usare questa estensione
Oppure usare Torxh web browser

Se i link risultassero non raggiungibili o bloccati a livello DNS

Seguite la guida Su Questo Articolo : GUIDA COME CAMBIARE DNS