Star Trek Picards 1×05-1080p.H264.ita.eng.Ac3-5.1.sub.ita.eng-MIRCrew – Torrent download

I Testi di tutte le canzoni del Festival di Sanremo 2020
TUTTE LE CANZONI DI SANREMO 2020

Ecco a voi il torrent Star Trek Picards 1x05-1080p.H264.ita.eng.Ac3-5.1.sub.ita.eng-MIRCrew - proveniente dagli archivi di Torrent

Lo staff di Cultura digitale al fine di promuovere la cultura condivide i contenuti presenti sul sito il corsaro nero.

Nome del Torrent: Star Trek Picards 1x05-1080p.H264.ita.eng.Ac3-5.1.sub.ita.eng-MIRCrew -

Descrizione del torrent: Star Trek Picard's 1x05-1080p.H264.ita.eng.Ac3-5.1.sub.ita.eng-MIRCrewClicca qua per ingrandire questa immagineDimensione file 1,00 GbTitolo originale Star Trek: PicardPaese Stati Uniti d'AmericaAnno 2020 – in produzioneFormato serie TVGenere fantascienza, drammatico, azioneStagioni 1Episodi 10Lingua originale ingleseClicca qua per ingrandire questa immagine  Star Trek: Picard è una serie televisiva statunitense del 2020 distribuita sul canale statunitense CBS.La serie, facente parte dell'omonimo franchise, è ambientata alla fine del XXIV secolo, vent'anni dopo gli eventi di Star Trek - La nemesi.Plot kept under wraps. Described as a follow-up series to Star Trek: The Next Generation (1987), and centers on Jean-Luc Picard (Sir Patrick Stewart) in the next chapter of his life.Cast:    Patrick Stewart: Jean-Luc Picard    Santiago Cabrera: Cristobal "Chris" Rios    Michelle Hurd: Raffi Musiker    Evan Evagora: Elnor    Alison Pill: Dr. Agnes Jurati    Harry Treadaway: Narek    Isa Briones: DahjClicca qua per ingrandire questa immagine Clicca qua per ingrandire questa immagine Clicca qua per ingrandire questa immagine Clicca qua per ingrandire questa immagine Clicca qua per ingrandire questa immagineGeneralComplete name                            : Star Trek Picard's 1x05 - Cronache di. Stardust City.1080p.H284.ita.eng.Ac3 5.1.sub.ita.eng-MIRCrewStar Trek Picard's 1x05 - Cronache di. Stardust City.1080p.H284.ita.eng.Ac3 5.1.sub.ita.eng-MIRCrew.mkvFormat                                   : MatroskaFormat version                           : Version 2File size                                : 1.07 GiBDuration                                 : 45mn 1sOverall bit rate                         : 3 391 KbpsMovie name                               : MIRCrewEncoded date                             : UTC 2020-02-21T15:14:28ZWriting application                      : mkvmerge v5.8.0 ('No Sleep / Pillow' built on Sep  2 2012 15:37:04Writing library                          : Lavf55.12.0VideoID                                       : 1Format                                   : AVCFormat/Info                              : Advanced Video CodecFormat profile                           : [email protected] settings, CABAC                   : YesFormat settings, ReFrames                : 4 framesCodec ID                                 : V_MPEG4/ISO/AVCDuration                                 : 45mn 1sBit rate                                 : 2 600 KbpsWidth                                    : 1 920 pixelsHeight                                   : 800 pixelsDisplay aspect ratio                     : 2.40:1Frame rate                               : 23.976 fpsColor space                              : YUVChroma subsampling                       : 4:2:0Bit depth                                : 8 bitsScan type                                : ProgressiveBits/(Pixel*Frame)                       : 0.071Stream size                              : 802 MiB (73%)Title                                    : MIRCrewWriting library                          : x264 core 142 r2479 dd79a61Encoding settings                        : cabac=1 / ref=1 / deblock=1:0:0 / analyse=0x1:0x111 / me=hex / subme=2 / psy=1 / psy_rd=1.00:0.00 / mixed_ref=0 / me_range=16 / chroma_me=1 / trellis=0 / 8x8dct=0 / cqm=0 / deadzone=21,11 / fast_pskip=1 / chroma_qp_offset=0 / threads=9 / lookahead_threads=3 / sliced_threads=0 / nr=0 / decimate=1 / interlaced=0 / bluray_compat=0 / constrained_intra=0 / bframes=3 / b_pyramid=2 / b_adapt=1 / b_bias=0 / direct=1 / weightb=1 / open_gop=0 / weightp=1 / keyint=240 / keyint_min=24 / scenecut=40 / intra_refresh=0 / rc_lookahead=10 / rc=abr / mbtree=1 / bitrate=2600 / ratetol=1.0 / qcomp=0.60 / qpmin=0 / qpmax=69 / qpstep=4 / vbv_maxrate=50000 / vbv_bufsize=62500 / nal_hrd=none / filler=0 / ip_ratio=1.40 / aq=1:1.00Language                                 : ItalianDefault                                  : YesForced                                   : NoColor primaries                          : BT.709-5, BT.1361, IEC 61966-2-4, SMPTE RP177Transfer characteristics                 : BT.709-5, BT.1361Matrix coefficients                      : BT.709-5, BT.1361, IEC 61966-2-4 709, SMPTE RP177Audio #1ID                                       : 2Format                                   : AC-3Format/Info                              : Audio Coding 3Mode extension                           : CM (complete main)Codec ID                                 : A_AC3Duration                                 : 45mn 1sBit rate mode                            : ConstantBit rate                                 : 448 KbpsChannel(s)                               : 6 channelsChannel positions                        : Front: L C R, Side: L R, LFESampling rate                            : 48.0 KHzBit depth                                : 16 bitsCompression mode                         : LossyDelay relative to video                  : -5msStream size                              : 144 MiB (13%)Title                                    : Ita Ace 5.1Language                                 : ItalianDefault                                  : YesForced                                   : NoAudio #2ID                                       : 3Format                                   : AC-3Format/Info                              : Audio Coding 3Mode extension                           : CM (complete main)Codec ID                                 : A_AC3Duration                                 : 45mn 1sBit rate mode                            : ConstantBit rate                                 : 384 KbpsChannel(s)                               : 6 channelsChannel positions                        : Front: L C R, Side: L R, LFESampling rate                            : 48.0 KHzBit depth                                : 16 bitsCompression mode                         : LossyDelay relative to video                  : -5msStream size                              : 124 MiB (11%)Title                                    : Eng Ac3 5.1Language                                 : EnglishDefault                                  : NoForced                                   : No

Dimensione: 1.07 GB

Categoria: SerieTv

ISCRIVETEVI AL FORUM

Presto ci saranno molte novità, registratevi gratuitamente al forum

Ricordiamo a tutti che su Cultura Digitale non sono presenti nessun file, questo torrent è di proprietà del Corsaro nero. pubblicato sul loro sito al seguente indirizzo: Star Trek Picards 1x05-1080p.H264.ita.eng.Ac3-5.1.sub.ita.eng-MIRCrew -

COLLEGAMENTO AL TORRENT

Importante: è un link con magnet, si dovrebbe aprire da solo. Se vi esce errore 404 nel vostro computer non è installato un programma per torrent o l’estensione che fa aprire i file magnet.

 Copiate questo link
magnet:?xt=urn:btih:92cbf68cb172dcfb30c871eaf1e52ec0b2df11a7&dn=Star+Trek+Picards+1x05-1080p.H264.ita.eng.Ac3-5.1.sub.ita.eng-MIRCrew&tr=udp%3A%2F%2Ftracker.coppersurfer.tk%3A6969%2Fannounce

Per firefox usare questa estensione – Per Chrome usare questa estensione
Oppure usare Torxh web browser

Se i link risultassero non raggiungibili o bloccati a livello DNS

Seguite la guida Su Questo Articolo : GUIDA COME CAMBIARE DNS 

I Testi di tutte le canzoni del Festival di Sanremo 2020
TUTTE LE CANZONI DI SANREMO 2020