Star.Wars.The.Clone.Wars.S07E12.iTA.ENG.2160p.HDR.DDP5.1.WEBRip.HEVC.H265-DENiED.mkv – Torrent download

Ecco a voi il torrent Star.Wars.The.Clone.Wars.S07E12.iTA.ENG.2160p.HDR.DDP5.1.WEBRip.HEVC.H265-DENiED.mkv - proveniente dagli archivi di Torrent

Lo staff di Cultura digitale al fine di promuovere la cultura condivide i contenuti presenti sul sito il corsaro nero.

Nome del Torrent: Star.Wars.The.Clone.Wars.S07E12.iTA.ENG.2160p.HDR.DDP5.1.WEBRip.HEVC.H265-DENiED.mkv -

Descrizione del torrent: Star Wars: The Clone Wars - Stagione 7[/sizeLingua orig.inglesePaeseStati UnitiAutore George LucasRegia Dave Filoni (supervisore dell'animazione)Episodi124 / 133 Completa al 93% in 7 stagioniRapporto16:9Durata ep.22 minRete it.Cartoon Network (st. 1-5), TIMvision (st. 6), Disney+ (st. 7)1ª TV it.13 febbraio 2009 – in corsoEpisodi it.121 / 133 Completa al 91% in 7 stagioniDurata ep. it.22 minNel video si dichiara che presto la galassia sarà profondamente diversa e i cavalieri jedi e la Repubblica moriranno. Darth Maul viene poi mostrato in azione, mentre si riflette anche sulla guerra dal punto di vista dei cavalieri jedi e dei cloni.Il trailer regala inoltre sequenze spettacolari, morti ed epici combattimenti con le spade laser.[spoiler[/spoiler[spoilerComplete name               : Star.Wars.The.Clone.Wars.S07E01.iTA.ENG.2160p.HDR.DDP5.1.WEBRip.HEVC.H265-DENiED.mkvFormat                      : MatroskaFormat version              : Version 4File size                   : 2.80 GiBDuration                    : 26 min 12 sOverall bit rate            : 15.3 Mb/sMovie name                  : Star.Wars.The.Clone.Wars.S07E01.iTA.ENG.2160p.HDR.DDP5.1.WEBRip.HEVC.H265-DENiEDEncoded date                : UTC 2020-03-10 21:21:18Writing application         : mkvmerge v44.0.0 ('Domino' 64-bitWriting library             : libebml v1.3.10 + libmatroska v1.5.2VideoID                          : 1Format                      : HEVCFormat/Info                 : High Efficiency Video CodingFormat profile              : Main [email protected]@HighHDR format                  : SMPTE ST 2086, HDR10 compatibleCodec ID                    : V_MPEGH/ISO/HEVCDuration                    : 26 min 12 sBit rate                    : 14.8 Mb/sWidth                       : 3 840 pixelsHeight                      : 2 160 pixelsDisplay aspect ratio        : 16:9Frame rate mode             : ConstantFrame rate                  : 23.976 (24000/1001) FPSColor space                 : YUVChroma subsampling          : 4:2:0Bit depth                   : 10 bitsBits/(Pixel*Frame)          : 0.074Stream size                 : 2.70 GiB (97%)Title                       : 2160p.HDR.WEB.H265-DENiEDDefault                     : YesForced                      : NoColor range                 : LimitedColor primaries             : BT.2020Transfer characteristics    : PQMatrix coefficients         : BT.2020 non-constantMastering display color pri : BT.2020Mastering display luminance : min: 0.0001 cd/m2, max: 1000 cd/m2Maximum Content Light Level : 954 cd/m2Maximum Frame-Average Light : 32 cd/m2Audio #1ID                          : 2Format                      : E-AC-3Format/Info                 : Enhanced AC-3Commercial name             : Dolby Digital PlusCodec ID                    : A_EAC3Duration                    : 26 min 12 sBit rate mode               : ConstantBit rate                    : 256 kb/sChannel(s)                  : 6 channelsChannel layout              : L R C LFE Ls RsSampling rate               : 48.0 kHzFrame rate                  : 31.250 FPS (1536 SPF)Compression mode            : LossyStream size                 : 48.0 MiB (2%)Title                       : DDP5.1Language                    : ItalianService kind                : Complete MainDefault                     : YesForced                      : YesAudio #2ID                          : 3Format                      : E-AC-3Format/Info                 : Enhanced AC-3Commercial name             : Dolby Digital PlusCodec ID                    : A_EAC3Duration                    : 26 min 12 sBit rate mode               : ConstantBit rate                    : 256 kb/sChannel(s)                  : 6 channelsChannel layout              : L R C LFE Ls RsSampling rate               : 48.0 kHzFrame rate                  : 31.250 FPS (1536 SPF)Compression mode            : LossyStream size                 : 48.0 MiB (2%)Title                       : DDP5.1Language                    : EnglishService kind                : Complete MainDefault                     : NoForced                      : NoText #1ID                          : 4Format                      : UTF-8Codec ID                    : S_TEXT/UTF8Codec ID/Info               : UTF-8 Plain TextDuration                    : 33 s 992 msBit rate                    : 9 b/sCount of elements           : 2Stream size                 : 40.0 Bytes (0%)Title                       : FORCEDLanguage                    : ItalianDefault                     : YesForced                      : YesText #2ID                          : 5Format                      : UTF-8Codec ID                    : S_TEXT/UTF8Codec ID/Info               : UTF-8 Plain TextDuration                    : 23 min 35 sBit rate                    : 55 b/sCount of elements           : 282Stream size                 : 9.66 KiB (0%)Title                       : FULLLanguage                    : ItalianDefault                     : NoForced                      : No[/spoiler

Dimensione: 2.55 GB

Categoria: Anime

ISCRIVETEVI AL FORUM

Presto ci saranno molte novità, registratevi gratuitamente al forum

Ricordiamo a tutti che su Cultura Digitale non sono presenti nessun file, questo torrent è di proprietà del Corsaro nero. pubblicato sul loro sito al seguente indirizzo: Star.Wars.The.Clone.Wars.S07E12.iTA.ENG.2160p.HDR.DDP5.1.WEBRip.HEVC.H265-DENiED.mkv -

COLLEGAMENTO AL TORRENT

Importante: è un link con magnet, si dovrebbe aprire da solo. Se vi esce errore 404 nel vostro computer non è installato un programma per torrent o l’estensione che fa aprire i file magnet.

 Copiate questo link
magnet:?xt=urn:btih:7153021b4f44c7f0681f18d4974e53a24061f450&dn=Star.Wars.The.Clone.Wars.S07E12.iTA.ENG.2160p.HDR.DDP5.1.WEBRip.HEVC.H265-DENiED.mkv&tr=udp%3A%2F%2Ftracker.coppersurfer.tk%3A6969%2Fannounce

Per firefox usare questa estensione – Per Chrome usare questa estensione
Oppure usare Torxh web browser

Se i link risultassero non raggiungibili o bloccati a livello DNS

Seguite la guida Su Questo Articolo : GUIDA COME CAMBIARE DNS