Supergirl.S05E14.The.Bodyguard.1080p.WEBMux.ITA.ENG.x264-BlackBit.mkv – Torrent download

Ecco a voi il torrent Supergirl.S05E14.The.Bodyguard.1080p.WEBMux.ITA.ENG.x264-BlackBit.mkv - proveniente dagli archivi di Torrent

Lo staff di Cultura digitale al fine di promuovere la cultura condivide i contenuti presenti sul sito il corsaro nero.

Nome del Torrent: Supergirl.S05E14.The.Bodyguard.1080p.WEBMux.ITA.ENG.x264-BlackBit.mkv -

Descrizione del torrent: Supergirl - Stagione 5itolo originale SupergirlPaese Stati Uniti d'AmericaAnno 2015 – in produzioneFormato serie TVGenere supereroi, azione, fantasyStagioni 5Episodi 103Durata 42 min (episodio)Lingua originale ingleseRapporto 16:9Action drama sulla figura di Kara Zor-El cresciuta dalla famiglia Danvers sin da quando aveva 12 anni dopo aver lasciato il pianeta natio Krypton. I Danvers cercano di insegnare a Kara a controllare i suoi poteri, ma un giorno la ragazza svela la sua vera natura durante un disastro per aiutare i civili presenti e da quel momento decide di abbracciare la sua vera natura e seguire le orme del suo più famoso cugino: Superman.[spoiler[/spoiler[spoilerGeneralUnique ID : 184065229769194981124680890877805709470 (0x8A79AC7C68347D4152362F86AFF9C89E)Complete name : C:UsersAdministratorVideosSupergirl S05Supergirl.S05E01.Event.Horizon.1080p.WEBMux.ITA.ENG.x264-BlackBit.mkvFormat : MatroskaFormat version : Version 4File size : 2.94 GiBDuration : 42 min 22 sOverall bit rate : 9 920 kb/sEncoded date : UTC 2020-03-21 21:08:24Writing application : mkvmerge v44.0.0 ('Domino' 64-bitWriting library : libebml v1.3.10 + libmatroska v1.5.2VideoID : 1Format : AVCFormat/Info : Advanced Video CodecFormat profile : [email protected] settings : CABAC / 4 Ref FramesFormat settings, CABAC : YesFormat settings, Reference : 4 framesCodec ID : V_MPEG4/ISO/AVCDuration : 42 min 22 sBit rate mode : ConstantBit rate : 9 086 kb/sNominal bit rate : 10 000 kb/sWidth : 1 920 pixelsHeight : 1 080 pixelsDisplay aspect ratio : 16:9Frame rate mode : ConstantFrame rate : 23.976 (24000/1001) FPSColor space : YUVChroma subsampling : 4:2:0Bit depth : 8 bitsScan type : ProgressiveBits/(Pixel*Frame) : 0.183Stream size : 2.69 GiB (92%)Default : YesForced : YesColor range : LimitedColor primaries : BT.709Transfer characteristics : BT.709Matrix coefficients : BT.709Audio #1ID : 2Format : AC-3Format/Info : Audio Coding 3Commercial name : Dolby DigitalCodec ID : A_AC3Duration : 42 min 22 sBit rate mode : ConstantBit rate : 192 kb/sChannel(s) : 2 channelsChannel layout : L RSampling rate : 48.0 kHzFrame rate : 31.250 FPS (1536 SPF)Compression mode : LossyStream size : 58.2 MiB (2%)Language : ItalianService kind : Complete MainDefault : YesForced : YesAudio #2ID : 3Format : E-AC-3Format/Info : Enhanced AC-3Commercial name : Dolby Digital PlusCodec ID : A_EAC3Duration : 42 min 22 sBit rate mode : ConstantBit rate : 640 kb/sChannel(s) : 6 channelsChannel layout : L R C LFE Ls RsSampling rate : 48.0 kHzFrame rate : 31.250 FPS (1536 SPF)Compression mode : LossyStream size : 194 MiB (6%)Language : EnglishService kind : Complete MainDefault : NoForced : NoText #1ID : 4Format : UTF-8Codec ID : S_TEXT/UTF8Codec ID/Info : UTF-8 Plain TextDuration : 28 min 9 sBit rate : 0 b/sCount of elements : 4Stream size : 196 Bytes (0%)Language : ItalianDefault : YesForced : YesText #2ID : 5Format : UTF-8Codec ID : S_TEXT/UTF8Codec ID/Info : UTF-8 Plain TextDuration : 41 min 33 sBit rate : 91 b/sCount of elements : 756Stream size : 27.9 KiB (0%)Language : ItalianDefault : NoForced : NoText #3ID : 6Format : UTF-8Codec ID : S_TEXT/UTF8Codec ID/Info : UTF-8 Plain TextDuration : 41 min 37 sBit rate : 86 b/sCount of elements : 809Stream size : 26.3 KiB (0%)Title : EnglishLanguage : EnglishDefault : NoForced : NoText #4ID : 7Format : UTF-8Codec ID : S_TEXT/UTF8Codec ID/Info : UTF-8 Plain TextDuration : 41 min 56 sBit rate : 90 b/sCount of elements : 863Stream size : 27.8 KiB (0%)Title : English SDHLanguage : EnglishDefault : NoForced : No[/spoiler

Dimensione: 2.96 GB

Categoria: SerieTv

ISCRIVETEVI AL FORUM

Presto ci saranno molte novità, registratevi gratuitamente al forum

Ricordiamo a tutti che su Cultura Digitale non sono presenti nessun file, questo torrent è di proprietà del Corsaro nero. pubblicato sul loro sito al seguente indirizzo: Supergirl.S05E14.The.Bodyguard.1080p.WEBMux.ITA.ENG.x264-BlackBit.mkv -

COLLEGAMENTO AL TORRENT

Importante: è un link con magnet, si dovrebbe aprire da solo. Se vi esce errore 404 nel vostro computer non è installato un programma per torrent o l’estensione che fa aprire i file magnet.

 Copiate questo link
magnet:?xt=urn:btih:9aed2bbab09fd38f686668edd48e0fc520961142&dn=Supergirl.S05E14.The.Bodyguard.1080p.WEBMux.ITA.ENG.x264-BlackBit.mkv&tr=udp%3A%2F%2Ftracker.coppersurfer.tk%3A6969%2Fannounce

Per firefox usare questa estensione – Per Chrome usare questa estensione
Oppure usare Torxh web browser

Se i link risultassero non raggiungibili o bloccati a livello DNS

Seguite la guida Su Questo Articolo : GUIDA COME CAMBIARE DNS