Supernatural.S13E01.Lost.And.Found.BDMux.ITA.ENG.x264-BlackBit.mkv – Torrent download

Ecco a voi il torrent Supernatural.S13E01.Lost.And.Found.BDMux.ITA.ENG.x264-BlackBit.mkv - proveniente dagli archivi di Torrent

Lo staff di Cultura digitale al fine di promuovere la cultura condivide i contenuti presenti sul sito il corsaro nero.

Nome del Torrent: Supernatural.S13E01.Lost.And.Found.BDMux.ITA.ENG.x264-BlackBit.mkv -

Descrizione del torrent: Supernatural - Stagione 13DATITitolo originale SupernaturalPaese Stati Uniti d'AmericaAnno 2005 – in produzioneFormato serie TVGenere horror, fantasy, drammaticoStagioni 15Episodi 307Durata 41 min (episodio)Lingua originale ingleseRapporto 16:9TRAMADramma horror che ruota intorno ai due fratelli Winchester, Sam e Dean, due cacciatori di mostri, fantasmi, vampiri, demoni, le cui vite sono intrinsecamente collegate al destino della razza umana.IMMAGINIREPORTGeneralUnique ID : 82357684746740406599376790003107504203 (0x3DF5835BDC09DF99B7865D0522E0204B)Complete name : C:UsersAdministratorVideosSupernatural S13Supernatural.S13E01.Lost.And.Found.1080p.BDMux.HEVC.ITA.ENG.x265-BlackBit.mkvFormat : MatroskaFormat version : Version 4File size : 1.32 GiBDuration : 41 min 50 sOverall bit rate : 4 519 kb/sEncoded date : UTC 2019-12-21 20:58:25Writing application : mkvmerge v41.0.0 ('Smarra' 64-bitWriting library : libebml v1.3.9 + libmatroska v1.5.2VideoID : 1Format : HEVCFormat/Info : High Efficiency Video CodingFormat profile : [email protected]@MainCodec ID : V_MPEGH/ISO/HEVCDuration : 41 min 49 sBit rate : 2 816 kb/sWidth : 1 920 pixelsHeight : 1 080 pixelsDisplay aspect ratio : 16:9Frame rate mode : ConstantFrame rate : 23.976 (24000/1001) FPSColor space : YUVChroma subsampling : 4:2:0Bit depth : 8 bitsBits/(Pixel*Frame) : 0.057Stream size : 842 MiB (62%)Default : YesForced : YesColor range : LimitedColor primaries : BT.709Transfer characteristics : BT.709Matrix coefficients : BT.709Audio #1ID : 2Format : AC-3Format/Info : Audio Coding 3Commercial name : Dolby DigitalCodec ID : A_AC3Duration : 41 min 50 sBit rate mode : ConstantBit rate : 192 kb/sChannel(s) : 2 channelsChannel layout : L RSampling rate : 48.0 kHzFrame rate : 31.250 FPS (1536 SPF)Compression mode : LossyStream size : 57.5 MiB (4%)Language : ItalianService kind : Complete MainDefault : YesForced : YesAudio #2ID : 3Format : DTSFormat/Info : Digital Theater SystemsCodec ID : A_DTSDuration : 41 min 50 sBit rate mode : ConstantBit rate : 1 509 kb/sChannel(s) : 6 channelsChannel layout : C L R Ls Rs LFESampling rate : 48.0 kHzFrame rate : 93.750 FPS (512 SPF)Bit depth : 24 bitsCompression mode : LossyStream size : 452 MiB (33%)Language : EnglishDefault : NoForced : NoText #1ID : 4Format : UTF-8Codec ID : S_TEXT/UTF8Codec ID/Info : UTF-8 Plain TextDuration : 41 min 17 sBit rate : 0 b/sCount of elements : 7Stream size : 119 Bytes (0%)Language : ItalianDefault : YesForced : YesText #2ID : 5Format : UTF-8Codec ID : S_TEXT/UTF8Codec ID/Info : UTF-8 Plain TextDuration : 41 min 17 sBit rate : 40 b/sCount of elements : 520Stream size : 12.1 KiB (0%)Language : ItalianDefault : NoForced : NoMenu00:00:00.000 : en:00:00:00.00000:01:40.600 : en:00:01:40.60000:02:58.929 : en:00:02:58.92900:08:02.941 : en:00:08:02.94100:20:06.372 : en:00:20:06.37200:26:32.716 : en:00:26:32.71600:31:17.334 : en:00:31:17.33400:41:20.311 : en:00:41:20.311CREDITI BlackBit

Dimensione: 308.33 MB

Categoria: SerieTv

ISCRIVETEVI AL FORUM

Presto ci saranno molte novità, registratevi gratuitamente al forum

Ricordiamo a tutti che su Cultura Digitale non sono presenti nessun file, questo torrent è di proprietà del Corsaro nero. pubblicato sul loro sito al seguente indirizzo: Supernatural.S13E01.Lost.And.Found.BDMux.ITA.ENG.x264-BlackBit.mkv -

COLLEGAMENTO AL TORRENT

Importante: è un link con magnet, si dovrebbe aprire da solo. Se vi esce errore 404 nel vostro computer non è installato un programma per torrent o l’estensione che fa aprire i file magnet.

 Copiate questo link
magnet:?xt=urn:btih:14d85fe087f967924369b117f60e97aa841b2f03&dn=Supernatural.S13E01.Lost.And.Found.BDMux.ITA.ENG.x264-BlackBit.mkv&tr=udp%3A%2F%2Ftracker.coppersurfer.tk%3A6969%2Fannounce

Per firefox usare questa estensione – Per Chrome usare questa estensione
Oppure usare Torxh web browser

Se i link risultassero non raggiungibili o bloccati a livello DNS

Seguite la guida Su Questo Articolo : GUIDA COME CAMBIARE DNS