Terminator: Dark Fate Destino oscuro (2019).H264.ita.eng.Ac3-5.1.sub.ita.eng-MIRCrew – Torrent download

I Testi di tutte le canzoni del Festival di Sanremo 2020
TUTTE LE CANZONI DI SANREMO 2020

Ecco a voi il torrent Terminator: Dark Fate Destino oscuro (2019).H264.ita.eng.Ac3-5.1.sub.ita.eng-MIRCrew - proveniente dagli archivi di Torrent

Lo staff di Cultura digitale al fine di promuovere la cultura condivide i contenuti presenti sul sito il corsaro nero.

Nome del Torrent: Terminator: Dark Fate Destino oscuro (2019).H264.ita.eng.Ac3-5.1.sub.ita.eng-MIRCrew -

Descrizione del torrent: Terminator: Dark Fate - Destino oscuro (2019).H264.ita.eng.Ac3-5.1.sub.ita.eng-MIRCrewNO FOUND ONLY ORIGINAL RELEASEMy release is always in double track audio italian and Original audiofor select it use VLC or dvd player homenot use wmp Terminator Dark Fate (2019)Quality MIRCrew on SD da 1,9 gb TITOLO : TERMINATOR 6 DARK FATEREGIA : Tim MillerANNO : 2019PAESE : USADURATA : 128 Min.GENERE : AZIONE, AVVENTURA, FANTASCIENZADIMENSIONE : 3.16 GbInterpreti: Oris Erhuero, Carlos Gallardo, Mark Strange, Katarina Leigh WatersTerminator: Destino Oscuro, sesto film della celebre saga creata da James Cameron con il primo capitolo del 1984, è un sequel diretto dei primi due film ed è ambientato 27 anni dopo gli avvenimenti di Terminator 2. Protagonista della storia è ancora Sarah Connor (Linda Hamilton), ormai esperta cacciatrice di macchine, che questa volta si ritrova a dover salvare una ragazza di nome Dani Ramos (Natalia Reyes)An augmented human and Sarah Connor must stop an advanced liquid Terminator, from hunting down a young girl, whose fate is critical to the human race.     GeneralUnique ID                                : 243787258009181922717656545904897625520 (0xB767B7D08D321ADB946E1CFEBC7D0DB0)Complete name                            : Terminator Dark Fate (2019).H264.ita.eng.sub.ita.eng-MIRCrewTerminator Dark Fate (2019).H264.ita.eng.sub.ita.eng-MIRCrew.mkvFormat                                   : MatroskaFormat version                           : Version 2File size                                : 1.90 GiBDuration                                 : 2h 8mnOverall bit rate                         : 2 128 KbpsMovie name                               : MIRCrewEncoded date                             : UTC 2020-01-17 07:27:40Writing application                      : mkvmerge v5.8.0 ('No Sleep / Pillow' built on Sep  2 2012 15:37:04Writing library                          : Lavf54.63.100COMMENT                                  : robbyrsCOPYRIGHT                                : robbyrsVideoID                                       : 1Format                                   : AVCFormat/Info                              : Advanced Video CodecFormat profile                           : [email protected] settings, CABAC                   : YesFormat settings, ReFrames                : 2 framesCodec ID                                 : V_MPEG4/ISO/AVCDuration                                 : 2h 8mnBit rate                                 : 1 300 KbpsWidth                                    : 720 pixelsHeight                                   : 304 pixelsDisplay aspect ratio                     : 2.40:1Frame rate mode                          : VariableFrame rate                               : 23.976 fpsColor space                              : YUVChroma subsampling                       : 4:2:0Bit depth                                : 8 bitsScan type                                : ProgressiveBits/(Pixel*Frame)                       : 0.248Stream size                              : 1.12 GiB (59%)Title                                    : MIRCrewWriting library                          : x264 core 130 r2273Encoding settings                        : cabac=1 / ref=2 / deblock=1:0:0 / analyse=0x1:0x131 / me=hex / subme=7 / psy=1 / psy_rd=1.00:0.00 / mixed_ref=0 / me_range=16 / chroma_me=1 / trellis=1 / 8x8dct=0 / cqm=0 / deadzone=21,11 / fast_pskip=1 / chroma_qp_offset=-2 / threads=9 / lookahead_threads=1 / sliced_threads=0 / nr=0 / decimate=1 / interlaced=0 / bluray_compat=0 / constrained_intra=0 / bframes=3 / b_pyramid=0 / b_adapt=1 / b_bias=0 / direct=3 / weightb=1 / open_gop=0 / weightp=2 / keyint=230 / keyint_min=23 / scenecut=40 / intra_refresh=0 / rc_lookahead=40 / rc=abr / mbtree=1 / bitrate=1300 / ratetol=1.0 / qcomp=0.60 / qpmin=10 / qpmax=69 / qpstep=4 / vbv_maxrate=24000 / vbv_bufsize=24000 / nal_hrd=none / ip_ratio=1.40 / aq=1:1.00Language                                 : ItalianDefault                                  : YesForced                                   : NoDURATION                                 : 02:08:05.678000000NUMBER_OF_FRAMES                         : 184272NUMBER_OF_BYTES                          : 8773484311_STATISTICS_WRITING_APP                  : mkvmerge v42.0.0 ('Overtime' 64-bit_STATISTICS_WRITING_DATE_UTC             : 2020-01-17 07:27:40_STATISTICS_TAGS                         : BPS DURATION NUMBER_OF_FRAMES NUMBER_OF_BYTESAudio #1ID                                       : 2Format                                   : AC-3Format/Info                              : Audio Coding 3Mode extension                           : CM (complete main)Codec ID                                 : A_AC3Duration                                 : 2h 8mnBit rate mode                            : ConstantBit rate                                 : 384 KbpsChannel(s)                               : 6 channelsChannel positions                        : Front: L C R, Side: L R, LFESampling rate                            : 48.0 KHzBit depth                                : 16 bitsCompression mode                         : LossyDelay relative to video                  : -42msStream size                              : 352 MiB (18%)Title                                    : ItaLanguage                                 : EnglishDefault                                  : NoForced                                   : NoDURATION                                 : 02:08:05.707000000NUMBER_OF_FRAMES                         : 720535NUMBER_OF_BYTES                          : 3900967352_STATISTICS_WRITING_APP                  : mkvmerge v42.0.0 ('Overtime' 64-bit_STATISTICS_WRITING_DATE_UTC             : 2020-01-17 07:27:40_STATISTICS_TAGS                         : BPS DURATION NUMBER_OF_FRAMES NUMBER_OF_BYTESAudio #2ID                                       : 3Format                                   : AC-3Format/Info                              : Audio Coding 3Mode extension                           : CM (complete main)Codec ID                                 : A_AC3Duration                                 : 2h 8mnBit rate mode                            : ConstantBit rate                                 : 448 KbpsChannel(s)                               : 6 channelsChannel positions                        : Front: L C R, Side: L R, LFESampling rate                            : 48.0 KHzBit depth                                : 16 bitsCompression mode                         : LossyDelay relative to video                  : -5msStream size                              : 411 MiB (21%)Title                                    : EngLanguage                                 : EnglishDefault                                  : YesForced                                   : NoMenu00:00:00.000                             : :00:00:00.00000:04:19.843                             : :00:04:19.84300:07:48.927                             : :00:07:48.92700:11:47.916                             : :00:11:47.91600:16:56.349                             : :00:16:56.34900:22:10.663                             : :00:22:10.66300:29:00.614                             : :00:29:00.61400:33:25.754                             : :00:33:25.75400:41:35.493                             : :00:41:35.49300:47:02.695                             : :00:47:02.69500:53:08.936                             : :00:53:08.93600:57:56.807                             : :00:57:56.80701:05:02.690                             : :01:05:02.69001:13:07.967                             : :01:13:07.96701:20:45.591                             : :01:20:45.59101:27:29.744                             : :01:27:29.74401:32:48.688                             : :01:32:48.68801:41:45.850                             : :01:41:45.85001:49:35.319                             : :01:49:35.31901:57:58.613                             : :01:57:58.613

Dimensione: 1.90 GB

Categoria: BDRip

ISCRIVETEVI AL FORUM

Presto ci saranno molte novità, registratevi gratuitamente al forum

Ricordiamo a tutti che su Cultura Digitale non sono presenti nessun file, questo torrent è di proprietà del Corsaro nero. pubblicato sul loro sito al seguente indirizzo: Terminator: Dark Fate Destino oscuro (2019).H264.ita.eng.Ac3-5.1.sub.ita.eng-MIRCrew -

COLLEGAMENTO AL TORRENT

Importante: è un link con magnet, si dovrebbe aprire da solo. Se vi esce errore 404 nel vostro computer non è installato un programma per torrent o l’estensione che fa aprire i file magnet.

 Copiate questo link
magnet:?xt=urn:btih:0d57c72e1e3096bcdded474d7c346c4891b5b371&dn=Terminator%3A+Dark+Fate+-+Destino+oscuro+%282019%29.H264.ita.eng.Ac3-5.1.sub.ita.eng-MIRCrew&tr=udp%3A%2F%2Ftracker.coppersurfer.tk%3A6969%2Fannounce

Per firefox usare questa estensione – Per Chrome usare questa estensione
Oppure usare Torxh web browser

Se i link risultassero non raggiungibili o bloccati a livello DNS

Seguite la guida Su Questo Articolo : GUIDA COME CAMBIARE DNS 

I Testi di tutte le canzoni del Festival di Sanremo 2020
TUTTE LE CANZONI DI SANREMO 2020