Terrore dallo spazio profondo (1978).1080p.H264.ita.eng.Ac3.sub.ita.eng-MIRCrew – Torrent download

Ecco a voi il torrent Terrore dallo spazio profondo (1978).1080p.H264.ita.eng.Ac3.sub.ita.eng-MIRCrew - proveniente dagli archivi di Torrent

Lo staff di Cultura digitale al fine di promuovere la cultura condivide i contenuti presenti sul sito il corsaro nero.

Nome del Torrent: Terrore dallo spazio profondo (1978).1080p.H264.ita.eng.Ac3.sub.ita.eng-MIRCrew -

Descrizione del torrent: Venite a trovarci su mircrew-releases.orgInvasion of the Body Snatchers - Terrore dallo spazio profondo 1978.1080p.H264.ita.eng.Ac3.sub.ita.eng-MIRCrewNO FOUND ONLY ORIGINAL RELEASEMy release is always in double track audio italian and Original audiofor select it use VLC or dvd player homenot use wmp Terrore dallo spazio profondo - Invasion of the Body Snatchers 1978Quality MIRCrew on HD 1080p da 2,3 gb Titolo originale Invasion of the Body SnatchersPaese di produzione Stati Uniti d'AmericaAnno 1978Durata 115 minGenere fantascienza, orrore, thrillerRegia Philip KaufmanSoggetto Jack FinneySceneggiatura W. D. Richter    Donald Sutherland: Matthew Bennell    Leonard Nimoy: Dr. David Kibner    Jeff Goldblum: Jack Bellicec    Brooke Adams: Elizabeth Driscoll    Veronica Cartwright: Nancy Bellicec    Lelia Goldoni: Katherine Hendley    Kevin McCarthy: uomo paranoico sulla strada    Robert Duvall: prete sull'altalena    Don Siegel: tassistaNelle immensità dello spazio profondo una razza di creature gelatinose abbandona il proprio pianeta morente e attraverso il vento solare raggiunge la Terra atterrando a San Francisco. La maggior parte degli alieni cade su delle piante, assumendo così la forma di piccoli baccelli con dei fiori rosa. Elizabeth Driscoll, una dipendente presso il dipartimento sanitario di San Francisco, è una delle numerose persone che portano i fiori alieni in casa. When strange seeds drift to earth from space, mysterious pods begin to grow and invade San Francisco, California, where they replicate the residents into emotionless automatons one body at a time. .   GeneralComplete name                            : Terrore dallo spazio profondo - Invasion of the Body Snatchers (197.1080p.h264.ita.eng.sub.ita.eng-MIRCrewTerrore dallo spazio profondo - Invasion of the Body Snatchers (197.1080p.h264.ita.eng.sub.ita.eng-MIRCrew.mkvFormat                                   : MatroskaFormat version                           : Version 2File size                                : 2.33 GiBDuration                                 : 1h 55mnOverall bit rate                         : 2 886 KbpsMovie name                               : MIRCrewEncoded date                             : UTC 2020-06-21 19:31:05Writing application                      : mkvmerge v5.4.0 ('Piper' built on Mar 10 2012 13:34:39Writing library                          : libebml v1.2.3 + libmatroska v1.3.0VideoID                                       : 1Format                                   : AVCFormat/Info                              : Advanced Video CodecFormat profile                           : [email protected] settings, CABAC                   : YesFormat settings, ReFrames                : 4 framesCodec ID                                 : V_MPEG4/ISO/AVCDuration                                 : 1h 55mnBit rate                                 : 2 500 KbpsWidth                                    : 1 920 pixelsHeight                                   : 1 040 pixelsDisplay aspect ratio                     : 16:9Frame rate                               : 23.976 fpsColor space                              : YUVChroma subsampling                       : 4:2:0Bit depth                                : 8 bitsScan type                                : ProgressiveBits/(Pixel*Frame)                       : 0.052Stream size                              : 1.97 GiB (85%)Title                                    : MIRCrewWriting library                          : x264 core 152 r2851M ba24899Encoding settings                        : cabac=1 / ref=4 / deblock=1:-1:-1 / analyse=0x3:0x113 / me=umh / subme=9 / psy=1 / psy_rd=1.00:0.15 / mixed_ref=1 / me_range=24 / chroma_me=1 / trellis=2 / 8x8dct=1 / cqm=0 / deadzone=21,11 / fast_pskip=1 / chroma_qp_offset=-3 / threads=32 / lookahead_threads=4 / sliced_threads=0 / nr=0 / decimate=1 / interlaced=0 / bluray_compat=0 / constrained_intra=0 / bframes=3 / b_pyramid=2 / b_adapt=2 / b_bias=0 / direct=3 / weightb=1 / open_gop=0 / weightp=2 / keyint=250 / keyint_min=25 / scenecut=40 / intra_refresh=0 / rc_lookahead=50 / rc=2pass / mbtree=1 / bitrate=2500 / ratetol=1.0 / qcomp=0.60 / qpmin=0 / qpmax=69 / qpstep=4 / cplxblur=20.0 / qblur=0.5 / vbv_maxrate=31250 / vbv_bufsize=31250 / nal_hrd=none / filler=0 / ip_ratio=1.40 / aq=3:1.00Language                                 : ItalianDefault                                  : YesForced                                   : NoAudio #1ID                                       : 2Format                                   : AC-3Format/Info                              : Audio Coding 3Mode extension                           : CM (complete main)Codec ID                                 : A_AC3Duration                                 : 1h 55mnBit rate mode                            : ConstantBit rate                                 : 192 KbpsChannel(s)                               : 2 channelsChannel positions                        : Front: L RSampling rate                            : 48.0 KHzBit depth                                : 16 bitsCompression mode                         : LossyStream size                              : 158 MiB (7%)Title                                    : Ita Ac3Language                                 : ItalianDefault                                  : YesForced                                   : NoAudio #2ID                                       : 3Format                                   : AC-3Format/Info                              : Audio Coding 3Mode extension                           : CM (complete main)Codec ID                                 : A_AC3Duration                                 : 1h 55mnBit rate mode                            : ConstantBit rate                                 : 192 KbpsChannel(s)                               : 2 channelsChannel positions                        : Front: L RSampling rate                            : 48.0 KHzBit depth                                : 16 bitsCompression mode                         : LossyStream size                              : 158 MiB (7%)Title                                    : Eng Ac3Language                                 : EnglishDefault                                  : NoForced                                   : No

Dimensione: 2.33 GB

Categoria: BDRip

ISCRIVETEVI AL FORUM

Presto ci saranno molte novità, registratevi gratuitamente al forum

Ricordiamo a tutti che su Cultura Digitale non sono presenti nessun file, questo torrent è di proprietà del Corsaro nero. pubblicato sul loro sito al seguente indirizzo: Terrore dallo spazio profondo (1978).1080p.H264.ita.eng.Ac3.sub.ita.eng-MIRCrew -

COLLEGAMENTO AL TORRENT

Importante: è un link con magnet, si dovrebbe aprire da solo. Se vi esce errore 404 nel vostro computer non è installato un programma per torrent o l’estensione che fa aprire i file magnet.

 Copiate questo link
magnet:?xt=urn:btih:2e98be78210e97b289aafdcce0aa78e62ae34aa7&dn=Terrore+dallo+spazio+profondo+%281978%29.1080p.H264.ita.eng.Ac3.sub.ita.eng-MIRCrew&tr=udp%3A%2F%2Ftracker.torrent.eu.org%3A451%2Fannounce

Per firefox usare questa estensione – Per Chrome usare questa estensione
Oppure usare Torxh web browser

Se i link risultassero non raggiungibili o bloccati a livello DNS

Seguite la guida Su Questo Articolo : GUIDA COME CAMBIARE DNS