The Aeronauts (2019).720p.H264.ita.eng.Ac3-5.1.sub.ita.eng-MIRCrew – Torrent download

Ecco a voi il torrent The Aeronauts (2019).720p.H264.ita.eng.Ac3-5.1.sub.ita.eng-MIRCrew - proveniente dagli archivi di Torrent

Lo staff di Cultura digitale al fine di promuovere la cultura condivide i contenuti presenti sul sito il corsaro nero.

Nome del Torrent: The Aeronauts (2019).720p.H264.ita.eng.Ac3-5.1.sub.ita.eng-MIRCrew -

Descrizione del torrent: The Aeronauts (2019).720p.H264.ita.eng.Ac3-5.1.sub.ita.eng-MIRCrewClicca qua per ingrandire questa immagineNO FOUND ONLY ORIGINAL RELEASEMy release is always in double track audio italian and Original audiofor select it use VLC or dvd player homenot use wmp The Aeronauts (2019)Quality MIRCrew on HD 720p da 1,9 gbClicca qua per ingrandire questa immagine Clicca qua per ingrandire questa immagineLingua originale inglesePaese di produzione Regno UnitoAnno 2019Durata 101 minRapporto 2,39:1Genere avventura, azione, biografico, thriller, drammaticoRegia Tom HarperSoggetto Tom Harper, Jack ThorneSceneggiatura Jack ThorneClicca qua per ingrandire questa immagineEddie Redmayne, Felicity Jones, Himesh Patel, Phoebe Fox, Anne Reid. Clicca qua per ingrandire questa immagineLondra, 1862. James Glaisher, pioniere della meteorologia, vorrebbe toccare con mano il cielo e comprendere da vicino le dinamiche atmosferiche. Ma per farlo gli serve un pallone aerostatico e un pilota. Imprevedibile come il tempo, Amelia Wren fa al caso suoClicca qua per ingrandire questa immaginePilot Amelia Rennes (Felicity Jones) and scientist James Glaisher (Eddie Redmayne) find themselves in an epic fight for survival while attempting to make discoveries in a gas balloon. Clicca qua per ingrandire questa immagine Clicca qua per ingrandire questa immagineClicca qua per ingrandire questa immagine Clicca qua per ingrandire questa immagine Clicca qua per ingrandire questa immagine Clicca qua per ingrandire questa immagine Clicca qua per ingrandire questa immagine Clicca qua per ingrandire questa immagineClicca qua per ingrandire questa immagineGeneralComplete name                            : The Aeronauts (2019).720p.H264.ita.eng.sub.ita.eng-MIRCrewThe Aeronauts (2019).720p.H264.ita.eng.sub.ita.eng-MIRCrew.mkvFormat                                   : MatroskaFormat version                           : Version 2File size                                : 1.90 GiBDuration                                 : 1h 40mnOverall bit rate                         : 2 713 KbpsMovie name                               : robbyrsEncoded date                             : UTC 2019-12-21T13:59:55ZWriting application                      : mkvmerge v5.8.0 ('No Sleep / Pillow' built on Sep  2 2012 15:37:04Writing library                          : Lavf55.12.0VideoID                                       : 1Format                                   : AVCFormat/Info                              : Advanced Video CodecFormat profile                           : [email protected] settings, CABAC                   : YesFormat settings, ReFrames                : 4 framesCodec ID                                 : V_MPEG4/ISO/AVCDuration                                 : 1h 40mnBit rate                                 : 1 900 KbpsWidth                                    : 1 280 pixelsHeight                                   : 528 pixelsDisplay aspect ratio                     : 2.40:1Frame rate                               : 23.976 fpsColor space                              : YUVChroma subsampling                       : 4:2:0Bit depth                                : 8 bitsScan type                                : ProgressiveBits/(Pixel*Frame)                       : 0.117Stream size                              : 1.28 GiB (67%)Title                                    : robbyrsWriting library                          : x264 core 142 r2479 dd79a61Encoding settings                        : cabac=1 / ref=3 / deblock=1:0:0 / analyse=0x3:0x113 / me=hex / subme=7 / psy=1 / psy_rd=1.00:0.00 / mixed_ref=1 / me_range=16 / chroma_me=1 / trellis=1 / 8x8dct=1 / cqm=0 / deadzone=21,11 / fast_pskip=1 / chroma_qp_offset=-2 / threads=9 / lookahead_threads=1 / sliced_threads=0 / nr=0 / decimate=1 / interlaced=0 / bluray_compat=0 / constrained_intra=0 / bframes=3 / b_pyramid=2 / b_adapt=1 / b_bias=0 / direct=1 / weightb=1 / open_gop=0 / weightp=2 / keyint=240 / keyint_min=24 / scenecut=40 / intra_refresh=0 / rc_lookahead=40 / rc=abr / mbtree=1 / bitrate=1900 / ratetol=1.0 / qcomp=0.60 / qpmin=0 / qpmax=69 / qpstep=4 / vbv_maxrate=62500 / vbv_bufsize=78125 / nal_hrd=none / filler=0 / ip_ratio=1.40 / aq=1:1.00Language                                 : ItalianDefault                                  : YesForced                                   : NoColor primaries                          : BT.709-5, BT.1361, IEC 61966-2-4, SMPTE RP177Transfer characteristics                 : BT.709-5, BT.1361Matrix coefficients                      : BT.709-5, BT.1361, IEC 61966-2-4 709, SMPTE RP177Audio #1ID                                       : 2Format                                   : AC-3Format/Info                              : Audio Coding 3Mode extension                           : CM (complete main)Codec ID                                 : A_AC3Duration                                 : 1h 40mnBit rate mode                            : ConstantBit rate                                 : 448 KbpsChannel(s)                               : 6 channelsChannel positions                        : Front: L C R, Side: L R, LFESampling rate                            : 48.0 KHzBit depth                                : 16 bitsCompression mode                         : LossyDelay relative to video                  : -83msStream size                              : 322 MiB (17%)Title                                    : Ita Ac3 5.1Language                                 : ItalianDefault                                  : NoForced                                   : NoAudio #2ID                                       : 3Format                                   : AC-3Format/Info                              : Audio Coding 3Mode extension                           : CM (complete main)Codec ID                                 : A_AC3Duration                                 : 1h 40mnBit rate mode                            : ConstantBit rate                                 : 384 KbpsChannel(s)                               : 6 channelsChannel positions                        : Front: L C R, Side: L R, LFESampling rate                            : 48.0 KHzBit depth                                : 16 bitsCompression mode                         : LossyDelay relative to video                  : -5msStream size                              : 276 MiB (14%)Title                                    : Eng Ac3 5.1Language                                 : EnglishDefault                                  : NoForced                                   : NoMenu00:00:00.000                             : :Studio Logo00:00:39.205                             : :Acknowledgement00:00:44.085                             : oubt is there to be listened to00:03:39.093                             : :Title Sequence00:03:46.267                             : reparing for flight00:09:54.177                             : :Flying over London00:14:13.144                             : :James wants to makes a scientific impact00:18:37.157                             : :The safest way is up00:27:27.229                             : :The silence of the upper atmosphere00:32:23.149                             : :A proposal to rewrite the rules of the air00:40:14.161                             : :Opening up about Pierre00:45:15.129                             : :The truth about fear and loss00:52:51.084                             : :Risking everything to break records00:59:09.254                             : :Facing her fear01:02:04.178                             : :The truth about Pierre01:07:17.199                             : :The dangers of thin air01:15:26.230                             : :Waiting for the descent01:23:13.280                             : :Bringing the stars closer01:26:04.200                             : :Quick thinking to save lives01:31:32.111                             : :All in the name of discovery01:36:28.240                             : :End Credits

Dimensione: 1.90 GB

Categoria: BDRip

ISCRIVETEVI AL FORUM

Presto ci saranno molte novità, registratevi gratuitamente al forum

Ricordiamo a tutti che su Cultura Digitale non sono presenti nessun file, questo torrent è di proprietà del Corsaro nero. pubblicato sul loro sito al seguente indirizzo: The Aeronauts (2019).720p.H264.ita.eng.Ac3-5.1.sub.ita.eng-MIRCrew -

COLLEGAMENTO AL TORRENT

Importante: è un link con magnet, si dovrebbe aprire da solo. Se vi esce errore 404 nel vostro computer non è installato un programma per torrent o l’estensione che fa aprire i file magnet.

 Copiate questo link
magnet:?xt=urn:btih:c70006bf6e54322b5455c4a4bb486cc3972476a7&dn=The+Aeronauts+%282019%29.720p.H264.ita.eng.Ac3-5.1.sub.ita.eng-MIRCrew&tr=udp%3A%2F%2Ftracker.coppersurfer.tk%3A6969%2Fannounce

Per firefox usare questa estensione – Per Chrome usare questa estensione
Oppure usare Torxh web browser

Se i link risultassero non raggiungibili o bloccati a livello DNS

Seguite la guida Su Questo Articolo : GUIDA COME CAMBIARE DNS