The.Blacklist.S07E17.Brothers.1080p.WEBMux.ITA.ENG.DD5.1.x264-BlackBit.mkv – Torrent download

Ecco a voi il torrent The.Blacklist.S07E17.Brothers.1080p.WEBMux.ITA.ENG.DD5.1.x264-BlackBit.mkv - proveniente dagli archivi di Torrent

Lo staff di Cultura digitale al fine di promuovere la cultura condivide i contenuti presenti sul sito il corsaro nero.

Nome del Torrent: The.Blacklist.S07E17.Brothers.1080p.WEBMux.ITA.ENG.DD5.1.x264-BlackBit.mkv -

Descrizione del torrent: The Blacklist - Stagione 7itolo originale The BlacklistPaese Stati Uniti d'AmericaAnno 2013 – in produzioneFormato serie TVGenere thriller, poliziesco, azioneStagioni 7Episodi 143Durata 45 min (episodio)Lingua originale ingleseRapporto 16:9Raymond Reddington, uno dei più pericolosi ricercati dall'FBI, si costituisce a sorpresa all'agenzia offrendosi di fornire informazioni su ogni criminale con cui abbia avuto a che fare: come clausola all'accordo, chiede di avere l'unico suo referente in Elizabeth Keen, una giovane analista al suo primo giorno di servizio nel Bureau. Questa richiesta, all'apparenza incomprensibile, costringe l'agenzia a rendere "Lizzie" parte integrante di una segreta unità operativa, che da quel momento inizia a occuparsi essenzialmente dei casi forniti da "Red".[spoiler[/spoiler[spoilerGeneralUnique ID : 177915805096082216194953307421760853349 (0x85D95670FAC25ED32A2F22831E949565)Complete name : C:UsersAdministratorVideosThe Blacklist S07Ep 01The.Blacklist.S07E01.Louis.T.Steinhil.1.1080p.WEBMux.ITA.ENG.DD5.1.x264-BlackBit.mkvFormat : MatroskaFormat version : Version 4File size : 3.12 GiBDuration : 42 min 58 sOverall bit rate : 10.4 Mb/sEncoded date : UTC 2020-03-20 21:06:32Writing application : mkvmerge v44.0.0 ('Domino' 64-bitWriting library : libebml v1.3.10 + libmatroska v1.5.2VideoID : 1Format : AVCFormat/Info : Advanced Video CodecFormat profile : [email protected] settings : CABAC / 4 Ref FramesFormat settings, CABAC : YesFormat settings, Reference : 4 framesCodec ID : V_MPEG4/ISO/AVCDuration : 42 min 58 sBit rate mode : ConstantBit rate : 9 359 kb/sNominal bit rate : 10 000 kb/sWidth : 1 920 pixelsHeight : 1 080 pixelsDisplay aspect ratio : 16:9Frame rate mode : ConstantFrame rate : 23.976 (24000/1001) FPSColor space : YUVChroma subsampling : 4:2:0Bit depth : 8 bitsScan type : ProgressiveBits/(Pixel*Frame) : 0.188Stream size : 2.81 GiB (90%)Default : YesForced : YesColor range : LimitedColor primaries : BT.709Transfer characteristics : BT.709Matrix coefficients : BT.709Audio #1ID : 2Format : AC-3Format/Info : Audio Coding 3Commercial name : Dolby DigitalCodec ID : A_AC3Duration : 42 min 57 sBit rate mode : ConstantBit rate : 384 kb/sChannel(s) : 6 channelsChannel layout : L R C LFE Ls RsSampling rate : 48.0 kHzFrame rate : 31.250 FPS (1536 SPF)Compression mode : LossyStream size : 118 MiB (4%)Language : ItalianService kind : Complete MainDefault : YesForced : YesAudio #2ID : 3Format : E-AC-3Format/Info : Enhanced AC-3Commercial name : Dolby Digital PlusCodec ID : A_EAC3Duration : 42 min 58 sBit rate mode : ConstantBit rate : 640 kb/sChannel(s) : 6 channelsChannel layout : L R C LFE Ls RsSampling rate : 48.0 kHzFrame rate : 31.250 FPS (1536 SPF)Compression mode : LossyStream size : 197 MiB (6%)Language : EnglishService kind : Complete MainDefault : NoForced : NoText #1ID : 4Format : UTF-8Codec ID : S_TEXT/UTF8Codec ID/Info : UTF-8 Plain TextDuration : 32 min 15 sBit rate : 1 b/sCount of elements : 19Stream size : 441 Bytes (0%)Language : ItalianDefault : YesForced : YesText #2ID : 5Format : UTF-8Codec ID : S_TEXT/UTF8Codec ID/Info : UTF-8 Plain TextDuration : 41 min 52 sBit rate : 85 b/sCount of elements : 742Stream size : 26.3 KiB (0%)Language : ItalianDefault : NoForced : NoText #3ID : 6Format : UTF-8Codec ID : S_TEXT/UTF8Codec ID/Info : UTF-8 Plain TextDuration : 42 min 8 sBit rate : 89 b/sCount of elements : 871Stream size : 27.6 KiB (0%)Title : SDHLanguage : EnglishDefault : NoForced : No[/spoiler

Dimensione: 3.00 GB

Categoria: SerieTv

ISCRIVETEVI AL FORUM

Presto ci saranno molte novità, registratevi gratuitamente al forum

Ricordiamo a tutti che su Cultura Digitale non sono presenti nessun file, questo torrent è di proprietà del Corsaro nero. pubblicato sul loro sito al seguente indirizzo: The.Blacklist.S07E17.Brothers.1080p.WEBMux.ITA.ENG.DD5.1.x264-BlackBit.mkv -

COLLEGAMENTO AL TORRENT

Importante: è un link con magnet, si dovrebbe aprire da solo. Se vi esce errore 404 nel vostro computer non è installato un programma per torrent o l’estensione che fa aprire i file magnet.

 Copiate questo link
magnet:?xt=urn:btih:dcd52e4663b64da9044895af562c9911473457cb&dn=The.Blacklist.S07E17.Brothers.1080p.WEBMux.ITA.ENG.DD5.1.x264-BlackBit.mkv&tr=udp%3A%2F%2Ftracker.coppersurfer.tk%3A6969%2Fannounce

Per firefox usare questa estensione – Per Chrome usare questa estensione
Oppure usare Torxh web browser

Se i link risultassero non raggiungibili o bloccati a livello DNS

Seguite la guida Su Questo Articolo : GUIDA COME CAMBIARE DNS