– The.Last.Kingdom.S04E06.La.febbre.ITA.ENG.1080p.Bluray.x264-MeM.mkv – – Torrent dowload

Ecco a voi il torrent – The.Last.Kingdom.S04E06.La.febbre.ITA.ENG.1080p.Bluray.x264-MeM.mkv – proveniente dagli archivi di [Torrent]

Lo staff di Cultura digitale al fine di promuovere la cultura condivide i contenuti presenti sul sito il corsaro nero.

Nome del Torrent: – The.Last.Kingdom.S04E06.La.febbre.ITA.ENG.1080p.Bluray.x264-MeM.mkv –

Descrizione del torrent: [center]Clicca qua per ingrandire questa immagineClicca qua per ingrandire questa immagineThe.Last.Kingdom.S04.ITA.ENG.1080p.BDMux.x264-MeM[/center][center]Clicca qua per ingrandire questa immagineTitolo Originale: The Last KingdomAnno: 2020Stagione: 4Episodi: 10Durata: 45 minuti Genere: drammatico, storicoTrama:Il dramma storico è ambientato durante il regno di Alfredo il Grande, Re del Wessex. Uhtred, figlio di un nobile sassone, rapito e allevato dai Vichinghi sarà costretto a scegliere tra il suo paese natale e la terra che lo ha accolto e nutrito e la sua lealtà verrà messa a dura prova. Mentre lotta per reclamare i propri diritti, Uhtred dovrà barcamenarsi tra le due fazioni lottando per dar vita a una nuova nazione e per recuperare la propria eredità.[/center][center]Clicca qua per ingrandire questa immagine [/center][center]Clicca qua per ingrandire questa immagineSorgente Video: The.Last.Kingdom.S04.1080p.BluRay.X264-HALOGENSorgente Audio: Premium ActionRisoluzione: 1920×1080, x264 25fpsAudio 1: ITA AC-3 2ch @192kb/s Audio 2: ENG AC-3 6ch @384kb/s Sottotitoli: ITA FULL, ITA FORCED, ENG FULL[/center][/center]CodeThe.Last.Kingdom.S04E01.A.Bebbanburg.ITA.ENG.1080p.Bluray.x264-MeM.mkvFormat                                   : MatroskaFormat version                           : Version 4 / Version 2File size                                : 4.66 GiBDuration                                 : 55mn 30sOverall bit rate                         : 12.0 MbpsEncoded date                             : UTC 2020-09-25 20:33:47Writing application                      : mkvmerge v7.6.0 ('Garden of Dreams&#39 64bit built on Feb  8 2015 15:12:28Writing library                          : libebml v1.3.1 + libmatroska v1.4.2_STATISTICS_WRITING_APP                  : mkvmerge v7.6.0 ('Garden of Dreams&#39 64bit built on Feb  8 2015 15:12:28_STATISTICS_WRITING_DATE_UTC             : 2020-09-25 20:33:47_STATISTICS_TAGS                         : BPS DURATION NUMBER_OF_FRAMES NUMBER_OF_BYTESDURATION                                 : 00:55:30.880000000NUMBER_OF_FRAMES                         : 104090NUMBER_OF_BYTES                          : 79941120VideoID                                       : 1Format                                   : AVCFormat/Info                              : Advanced Video CodecFormat profile                           : [email protected] settings, CABAC                   : YesFormat settings, ReFrames                : 4 framesCodec ID                                 : V_MPEG4/ISO/AVCDuration                                 : 55mn 30sBit rate                                 : 11.2 MbpsWidth                                    : 1 920 pixelsHeight                                   : 1 080 pixelsDisplay aspect ratio                     : 16:9Frame rate                               : 25.000 fpsOriginal frame rate                      : 23.976 fpsColor space                              : YUVChroma subsampling                       : 4:2:0Bit depth                                : 8 bitsScan type                                : ProgressiveBits/(Pixel*Frame)                       : 0.216Stream size                              : 4.34 GiB (93%)Writing library                          : x264 core 161 r3018 db0d417Encoding settings                        : cabac=1 / ref=4 / deblock=1:-3:-3 / analyse=0x3:0x133 / me=umh / subme=9 / psy=1 / psy_rd=1.00:0.00 / mixed_ref=1 / me_range=16 / chroma_me=1 / trellis=2 / 8x8dct=1 / cqm=0 / deadzone=21,11 / fast_pskip=1 / chroma_qp_offset=-4 / threads=18 / lookahead_threads=16 / sliced_threads=0 / nr=0 / decimate=1 / interlaced=0 / bluray_compat=0 / constrained_intra=0 / bframes=3 / b_pyramid=2 / b_adapt=2 / b_bias=0 / direct=3 / weightb=1 / open_gop=0 / weightp=2 / keyint=250 / keyint_min=24 / scenecut=40 / intra_refresh=0 / rc_lookahead=60 / rc=crf / mbtree=1 / crf=16.0 / qcomp=0.60 / qpmin=0 / qpmax=69 / qpstep=4 / ip_ratio=1.40 / aq=1:1.00Default                                  : YesForced                                   : NoAudio #1ID                                       : 2Format                                   : AC-3Format/Info                              : Audio Coding 3Mode extension                           : CM (complete main)Codec ID                                 : A_AC3Duration                                 : 55mn 30sBit rate mode                            : ConstantBit rate                                 : 192 KbpsChannel(s)                               : 2 channelsChannel positions                        : Front: L RSampling rate                            : 48.0 KHzBit depth                                : 16 bitsCompression mode                         : LossyStream size                              : 76.2 MiB (2%)Title                                    : ITALanguage                                 : ItalianDefault                                  : YesForced                                   : YesAudio #2ID                                       : 3Format                                   : AC-3Format/Info                              : Audio Coding 3Mode extension                           : CM (complete main)Codec ID                                 : A_AC3Duration                                 : 55mn 30sBit rate mode                            : ConstantBit rate                                 : 384 KbpsChannel(s)                               : 6 channelsChannel positions                        : Front: L C R, Side: L R, LFESampling rate                            : 48.0 KHzBit depth                                : 16 bitsCompression mode                         : LossyStream size                              : 152 MiB (3%)Title                                    : ENGLanguage                                 : EnglishDefault                                  : NoForced                                   : NoText #1ID                                       : 4Format                                   : UTF-8Codec ID                                 : S_TEXT/UTF8Codec ID/Info                            : UTF-8 Plain TextTitle                                    : ForcedLanguage                                 : ItalianDefault                                  : YesForced                                   : YesText #2ID                                       : 5Format                                   : UTF-8Codec ID                                 : S_TEXT/UTF8Codec ID/Info                            : UTF-8 Plain TextLanguage                                 : ItalianDefault                                  : NoForced                                   : NoText #3ID                                       : 6Format                                   : PGSMuxing mode                              : zlibCodec ID                                 : S_HDMV/PGSCodec ID/Info                            : The same subtitle format used on BDs/HD-DVDsLanguage                                 : EnglishDefault                                  : NoForced                                   : No[center]Clicca qua per ingrandire questa immagine[/center][center]Clicca qua per ingrandire questa immagine[/center][center][/center]

Dimensione:4.68 GB

Categoria: SerieTv

ISCRIVETEVI AL FORUM

Presto ci saranno molte novità, registratevi gratuitamente al forum

Ricordiamo a tutti che su Cultura Digitale non sono presenti nessun file, questo torrent è di proprietà del Corsaro nero. pubblicato sul loro sito al seguente indirizzo: – The.Last.Kingdom.S04E06.La.febbre.ITA.ENG.1080p.Bluray.x264-MeM.mkv –

COLLEGAMENTO AL TORRENT

Importante: è un link con magnet, si dovrebbe aprire da solo. Se vi esce errore 404 nel vostro computer non è installato un programma per torrent o l’estensione che fa aprire i file magnet.

 Copiate questo link
magnet:?xt=urn:btih:54863a5d7994a098dab6b1f7c31ec67079abb4ba&dn=The.Last.Kingdom.S04E06.La.febbre.ITA.ENG.1080p.Bluray.x264-MeM.mkv&tr=udp%3A%2F%2Ftracker.opentrackr.org%3A1337%2Fannounce

Per firefox usare questa estensione – Per Chrome usare questa estensione
Oppure usare Torxh web browser

Se i link risultassero non raggiungibili o bloccati a livello DNS

Seguite la guida Su Questo Articolo : GUIDA COME CAMBIARE DNS