The Mandalorian 1×07.720p.H264.ita.eng.Ac3-5.1.sub.ita.eng-MIRCrew – Torrent download

Ecco a voi il torrent The Mandalorian 1x07.720p.H264.ita.eng.Ac3-5.1.sub.ita.eng-MIRCrew - proveniente dagli archivi di Torrent

Lo staff di Cultura digitale al fine di promuovere la cultura condivide i contenuti presenti sul sito il corsaro nero.

Nome del Torrent: The Mandalorian 1x07.720p.H264.ita.eng.Ac3-5.1.sub.ita.eng-MIRCrew -

Descrizione del torrent: The Mandalorian 1x07.720p.H264.ita.eng.Ac3-5.1.sub.ita.eng-MIRCrewClicca qua per ingrandire questa immaginePaese Stati Uniti d'AmericaAnno 2019 – in produzioneFormato webserieGenere fantascienzaLingua originale ingleseThe Mandalorian è ambientato dopo la caduta dell'Impero e prima del regno di terrore del Primo Ordine. Segue le avventure travagliate di un pistolero solitario nei meandri più reconditi della galassia, lontano dall'autorità della Nuova Repubblica. The Mandalorian (also known as Star Wars: The Mandalorian) is an American space western web television series that premiered on Disney+ on November 12, 2019. Set in the Star Wars universe, the series takes place five years after the events of Return of the Jedi and follows a Mandalorian bounty hunter beyond the reaches of the New Republic. Cast:  Pedro Pascal: The Mandalorian  Gina Carano: Cara Dune  Nick Nolte  Giancarlo Esposito  Carl Weathers: Greef Karga  Emily Swallow  Omid Abtahi  Werner Herzog  Taika Waititi: IG-11  Bill BurrClicca qua per ingrandire questa immagine Clicca qua per ingrandire questa immagine Clicca qua per ingrandire questa immagine Clicca qua per ingrandire questa immagineGeneralComplete name                            : The Mandalorian.720p.h264 1x07.ita.eng.Ac3-5.1.sub.ita.eng-MIRCrewThe Mandalorian.720p.h264 1x07.ita.eng.Ac3-5.1.sub.ita.eng-MIRCrew.mkvFormat                                   : MatroskaFormat version                           : Version 2File size                                : 749 MiBDuration                                 : 38mn 17sOverall bit rate                         : 2 733 KbpsMovie name                               : robbyrsEncoded date                             : UTC 2019-12-22T08:32:58ZWriting application                      : mkvmerge v5.8.0 ('No Sleep / Pillow' built on Sep  2 2012 15:37:04Writing library                          : Lavf55.12.0VideoID                                       : 1Format                                   : AVCFormat/Info                              : Advanced Video CodecFormat profile                           : [email protected] settings, CABAC                   : YesFormat settings, ReFrames                : 4 framesCodec ID                                 : V_MPEG4/ISO/AVCDuration                                 : 38mn 17sBit rate                                 : 2 000 KbpsWidth                                    : 1 280 pixelsHeight                                   : 528 pixelsDisplay aspect ratio                     : 2.40:1Frame rate                               : 23.976 fpsColor space                              : YUVChroma subsampling                       : 4:2:0Bit depth                                : 8 bitsScan type                                : ProgressiveBits/(Pixel*Frame)                       : 0.123Stream size                              : 523 MiB (70%)Title                                    : robbyrsWriting library                          : x264 core 142 r2479 dd79a61Encoding settings                        : cabac=1 / ref=1 / deblock=1:0:0 / analyse=0x1:0x111 / me=hex / subme=2 / psy=1 / psy_rd=1.00:0.00 / mixed_ref=0 / me_range=16 / chroma_me=1 / trellis=0 / 8x8dct=0 / cqm=0 / deadzone=21,11 / fast_pskip=1 / chroma_qp_offset=0 / threads=9 / lookahead_threads=3 / sliced_threads=0 / nr=0 / decimate=1 / interlaced=0 / bluray_compat=0 / constrained_intra=0 / bframes=3 / b_pyramid=2 / b_adapt=1 / b_bias=0 / direct=1 / weightb=1 / open_gop=0 / weightp=1 / keyint=240 / keyint_min=24 / scenecut=40 / intra_refresh=0 / rc_lookahead=10 / rc=abr / mbtree=1 / bitrate=2000 / ratetol=1.0 / qcomp=0.60 / qpmin=0 / qpmax=69 / qpstep=4 / vbv_maxrate=50000 / vbv_bufsize=62500 / nal_hrd=none / filler=0 / ip_ratio=1.40 / aq=1:1.00Language                                 : ItalianDefault                                  : YesForced                                   : NoColor primaries                          : BT.709-5, BT.1361, IEC 61966-2-4, SMPTE RP177Transfer characteristics                 : BT.709-5, BT.1361Matrix coefficients                      : BT.709-5, BT.1361, IEC 61966-2-4 709, SMPTE RP177Audio #1ID                                       : 2Format                                   : AC-3Format/Info                              : Audio Coding 3Mode extension                           : CM (complete main)Codec ID                                 : A_AC3Duration                                 : 38mn 17sBit rate mode                            : ConstantBit rate                                 : 384 KbpsChannel(s)                               : 6 channelsChannel positions                        : Front: L C R, Side: L R, LFESampling rate                            : 48.0 KHzBit depth                                : 16 bitsCompression mode                         : LossyDelay relative to video                  : -83msStream size                              : 105 MiB (14%)Title                                    : Ita Ac3 5.1Language                                 : ItalianDefault                                  : YesForced                                   : NoAudio #2ID                                       : 3Format                                   : AC-3Format/Info                              : Audio Coding 3Mode extension                           : CM (complete main)Codec ID                                 : A_AC3Duration                                 : 38mn 17sBit rate mode                            : ConstantBit rate                                 : 384 KbpsChannel(s)                               : 6 channelsChannel positions                        : Front: L C R, Side: L R, LFESampling rate                            : 48.0 KHzBit depth                                : 16 bitsCompression mode                         : LossyDelay relative to video                  : -83msStream size                              : 105 MiB (14%)Title                                    : Eng Ac3 5.1Language                                 : EnglishDefault                                  : NoForced                                   : No

Dimensione: 748.61 MB

Categoria: BDRip

ISCRIVETEVI AL FORUM

Presto ci saranno molte novità, registratevi gratuitamente al forum

Ricordiamo a tutti che su Cultura Digitale non sono presenti nessun file, questo torrent è di proprietà del Corsaro nero. pubblicato sul loro sito al seguente indirizzo: The Mandalorian 1x07.720p.H264.ita.eng.Ac3-5.1.sub.ita.eng-MIRCrew -

COLLEGAMENTO AL TORRENT

Importante: è un link con magnet, si dovrebbe aprire da solo. Se vi esce errore 404 nel vostro computer non è installato un programma per torrent o l’estensione che fa aprire i file magnet.

 Copiate questo link
magnet:?xt=urn:btih:29a67c6bcdfe90e3556e0c443c35bc61f0e310b2&dn=The+Mandalorian+1x07.720p.H264.ita.eng.Ac3-5.1.sub.ita.eng-MIRCrew&tr=udp%3A%2F%2Ftracker.coppersurfer.tk%3A6969%2Fannounce

Per firefox usare questa estensione – Per Chrome usare questa estensione
Oppure usare Torxh web browser

Se i link risultassero non raggiungibili o bloccati a livello DNS

Seguite la guida Su Questo Articolo : GUIDA COME CAMBIARE DNS