The.Order.S02E01-10.1080p.WEBRip.ITA.ENG.DDP5.1.x264-BlackBit – Torrent download

Ecco a voi il torrent The.Order.S02E01-10.1080p.WEBRip.ITA.ENG.DDP5.1.x264-BlackBit - proveniente dagli archivi di Torrent

Lo staff di Cultura digitale al fine di promuovere la cultura condivide i contenuti presenti sul sito il corsaro nero.

Nome del Torrent: The.Order.S02E01-10.1080p.WEBRip.ITA.ENG.DDP5.1.x264-BlackBit -

Descrizione del torrent: The Order - Stagione 2itolo originale The OrderPaese Stati Uniti d'AmericaAnno 2019 – in produzioneFormato serie TVGenere horror, drammatico, fantasticoStagioni 2Episodi 20Lingua originale ingleseRapporto 16:9The Order segue lo studente universitario Jack Morton mentre si unisce all'Ordine Ermetico della Rosa Blu, una società segreta che insegna e pratica la magia. Mentre Jack approfondisce la storia dell'organizzazione, scopre segreti oscuri della famiglia e una battaglia sotterranea tra lupi mannari e le magiche arti oscure.[spoiler[/spoiler[spoilerGeneralUnique ID : 167349021387344686722453740489531836628 (0x7DE63FC7FDD581D8601991273389C8D4)Complete name : C:UsersAdministratorVideosThe Order S02The.Order.S02E01.Free.Radicals.Part.1.1080p.WEBRip.ITA.ENG.DDP5.1.x264-BlackBit.mkvFormat : MatroskaFormat version : Version 4File size : 2.17 GiBDuration : 47 min 39 sOverall bit rate mode : VariableOverall bit rate : 6 519 kb/sEncoded date : UTC 2020-06-18 08:35:18Writing application : mkvmerge v46.0.0 ('No Deeper Escape' 64-bitWriting library : libebml v1.3.10 + libmatroska v1.5.2VideoID : 1Format : AVCFormat/Info : Advanced Video CodecFormat profile : [email protected] settings : CABAC / 3 Ref FramesFormat settings, CABAC : YesFormat settings, Reference : 3 framesCodec ID : V_MPEG4/ISO/AVCDuration : 47 min 39 sBit rate mode : VariableBit rate : 5 360 kb/sMaximum bit rate : 8 040 kb/sWidth : 1 920 pixelsHeight : 1 080 pixelsDisplay aspect ratio : 16:9Frame rate mode : ConstantFrame rate : 23.976 (24000/1001) FPSColor space : YUVChroma subsampling : 4:2:0Bit depth : 8 bitsScan type : ProgressiveBits/(Pixel*Frame) : 0.108Stream size : 1.70 GiB (78%)Writing library : x264 core 148 r2717 0d2410dEncoding settings : cabac=1 / ref=3 / deblock=1:0:0 / analyse=0x1:0x111 / me=umh / subme=10 / psy=1 / psy_rd=1.00:0.00 / mixed_ref=1 / me_range=24 / chroma_me=1 / trellis=2 / 8x8dct=0 / cqm=0 / deadzone=21,11 / fast_pskip=1 / chroma_qp_offset=-2 / threads=8 / lookahead_threads=1 / sliced_threads=0 / nr=0 / decimate=1 / interlaced=0 / bluray_compat=0 / stitchable=1 / constrained_intra=0 / bframes=2 / b_pyramid=0 / b_adapt=2 / b_bias=0 / direct=3 / weightb=1 / open_gop=0 / weightp=2 / keyint=250 / keyint_min=23 / scenecut=0 / intra_refresh=0 / rc_lookahead=48 / rc=2pass / mbtree=1 / bitrate=5360 / ratetol=1.0 / qcomp=0.50 / qpmin=6 / qpmax=51 / qpstep=4 / cplxblur=20.0 / qblur=0.5 / vbv_maxrate=8040 / vbv_bufsize=10720 / nal_hrd=vbr / filler=0 / ip_ratio=1.40 / aq=1:1.00Default : YesForced : YesAudio #1ID : 2Format : E-AC-3Format/Info : Enhanced AC-3Commercial name : Dolby Digital PlusCodec ID : A_EAC3Duration : 47 min 39 sBit rate mode : ConstantBit rate : 640 kb/sChannel(s) : 6 channelsChannel layout : L R C LFE Ls RsSampling rate : 48.0 kHzFrame rate : 31.250 FPS (1536 SPF)Compression mode : LossyStream size : 218 MiB (10%)Language : ItalianService kind : Complete MainDefault : YesForced : YesAudio #2ID : 3Format : E-AC-3 JOCFormat/Info : Enhanced AC-3 with Joint Object CodingCommercial name : Dolby Digital Plus with Dolby AtmosCodec ID : A_EAC3Duration : 47 min 39 sBit rate mode : ConstantBit rate : 768 kb/sChannel(s) : 6 channelsChannel layout : L R C LFE Ls RsSampling rate : 48.0 kHzFrame rate : 31.250 FPS (1536 SPF)Compression mode : LossyStream size : 262 MiB (12%)Language : EnglishService kind : Complete MainDefault : NoForced : NoComplexity index : 16Number of dynamic objects : 15Bed channel count : 1 channelBed channel configuration : LFEText #1ID : 4Format : UTF-8Codec ID : S_TEXT/UTF8Codec ID/Info : UTF-8 Plain TextDuration : 46 min 21 sBit rate : 0 b/sCount of elements : 4Stream size : 119 Bytes (0%)Language : ItalianDefault : YesForced : YesText #2ID : 5Format : UTF-8Codec ID : S_TEXT/UTF8Codec ID/Info : UTF-8 Plain TextDuration : 46 min 21 sBit rate : 62 b/sCount of elements : 706Stream size : 21.3 KiB (0%)Title : ItalianLanguage : ItalianDefault : NoForced : No[/spoiler

Dimensione: 18.25 GB

Categoria: SerieTv

ISCRIVETEVI AL FORUM

Presto ci saranno molte novità, registratevi gratuitamente al forum

Ricordiamo a tutti che su Cultura Digitale non sono presenti nessun file, questo torrent è di proprietà del Corsaro nero. pubblicato sul loro sito al seguente indirizzo: The.Order.S02E01-10.1080p.WEBRip.ITA.ENG.DDP5.1.x264-BlackBit -

COLLEGAMENTO AL TORRENT

Importante: è un link con magnet, si dovrebbe aprire da solo. Se vi esce errore 404 nel vostro computer non è installato un programma per torrent o l’estensione che fa aprire i file magnet.

 Copiate questo link
magnet:?xt=urn:btih:1d4fd1504e3916b8d2722c5a2094e44ab296b384&dn=The.Order.S02E01-10.1080p.WEBRip.ITA.ENG.DDP5.1.x264-BlackBit&tr=udp%3A%2F%2Ftracker.coppersurfer.tk%3A6969%2Fannounce

Per firefox usare questa estensione – Per Chrome usare questa estensione
Oppure usare Torxh web browser

Se i link risultassero non raggiungibili o bloccati a livello DNS

Seguite la guida Su Questo Articolo : GUIDA COME CAMBIARE DNS