The.Politician.S02E01-07.1080p.NF.WEBRip.ITA.ENG.DDP5.1.x264-BlackBit – Torrent download

Ecco a voi il torrent The.Politician.S02E01-07.1080p.NF.WEBRip.ITA.ENG.DDP5.1.x264-BlackBit - proveniente dagli archivi di Torrent

Lo staff di Cultura digitale al fine di promuovere la cultura condivide i contenuti presenti sul sito il corsaro nero.

Nome del Torrent: The.Politician.S02E01-07.1080p.NF.WEBRip.ITA.ENG.DDP5.1.x264-BlackBit -

Descrizione del torrent: The Politician - Stagione 2itolo originale The PoliticianPaese Stati Uniti d'AmericaAnno 2019 – in produzioneFormato serie TVGenere commedia nera, commedia drammatica, dramma adolescenzialeStagioni 2Episodi 15Durata 28-62 min (episodio)Lingua originale inglesePayton Hobart, uno studente di una scuola superiore di Santa Barbara, decide di diventare presidente del consiglio studentesco e ambisce un giorno ad essere presidente degli Stati Uniti. Guida un'Alfa Romeo Giulietta Spider. Inizia così la campagna elettorale a scuola, nella Saint Sebastian High School.[spoiler[/spoiler[spoilerGeneralUnique ID : 291451015689555291213479507504197652067 (0xDB436C8107F86CE30CD2A68F5FE9CE63)Complete name : C:UsersAdministratorVideosThe Politician S02Ep 01-07 SDThe.Politician.S02E01.New.York.State.of.Mind.NF.WEBRip.ITA.ENG.DDP5.1.x264-BlackBit.mkvFormat : MatroskaFormat version : Version 4File size : 931 MiBDuration : 50 min 21 sOverall bit rate mode : VariableOverall bit rate : 2 583 kb/sEncoded date : UTC 2020-06-25 08:30:37Writing application : mkvmerge v46.0.0 ('No Deeper Escape' 64-bitWriting library : libebml v1.3.10 + libmatroska v1.5.2VideoID : 1Format : AVCFormat/Info : Advanced Video CodecFormat profile : [email protected] settings : 3 Ref FramesFormat settings, CABAC : NoFormat settings, Reference : 3 framesFormat settings, GOP : M=1, N=48Codec ID : V_MPEG4/ISO/AVCDuration : 50 min 21 sBit rate mode : VariableBit rate : 1 350 kb/sMaximum bit rate : 2 025 kb/sWidth : 640 pixelsHeight : 480 pixelsDisplay aspect ratio : 16:9Frame rate mode : ConstantFrame rate : 23.976 (24000/1001) FPSColor space : YUVChroma subsampling : 4:2:0Bit depth : 8 bitsScan type : ProgressiveBits/(Pixel*Frame) : 0.183Stream size : 469 MiB (50%)Writing library : x264 core 148 r2717 0d2410dEncoding settings : cabac=0 / ref=3 / deblock=1:0:0 / analyse=0x1:0x111 / me=umh / subme=9 / psy=1 / psy_rd=1.00:0.00 / mixed_ref=1 / me_range=24 / chroma_me=1 / trellis=1 / 8x8dct=0 / cqm=0 / deadzone=21,11 / fast_pskip=1 / chroma_qp_offset=-2 / threads=6 / lookahead_threads=1 / sliced_threads=0 / nr=0 / decimate=1 / interlaced=0 / bluray_compat=0 / stitchable=1 / constrained_intra=0 / bframes=0 / weightp=0 / keyint=48 / keyint_min=25 / scenecut=0 / intra_refresh=0 / rc_lookahead=48 / rc=2pass / mbtree=1 / bitrate=1350 / ratetol=1.0 / qcomp=0.50 / qpmin=8 / qpmax=51 / qpstep=4 / cplxblur=20.0 / qblur=0.5 / vbv_maxrate=2025 / vbv_bufsize=2700 / nal_hrd=vbr / filler=0 / ip_ratio=1.40 / aq=1:1.00Default : YesForced : YesAudio #1ID : 2Format : E-AC-3Format/Info : Enhanced AC-3Commercial name : Dolby Digital PlusCodec ID : A_EAC3Duration : 50 min 21 sBit rate mode : ConstantBit rate : 640 kb/sChannel(s) : 6 channelsChannel layout : L R C LFE Ls RsSampling rate : 48.0 kHzFrame rate : 31.250 FPS (1536 SPF)Compression mode : LossyStream size : 231 MiB (25%)Language : ItalianService kind : Complete MainDefault : YesForced : YesAudio #2ID : 3Format : E-AC-3Format/Info : Enhanced AC-3Commercial name : Dolby Digital PlusCodec ID : A_EAC3Duration : 50 min 21 sBit rate mode : ConstantBit rate : 640 kb/sChannel(s) : 6 channelsChannel layout : L R C LFE Ls RsSampling rate : 48.0 kHzFrame rate : 31.250 FPS (1536 SPF)Compression mode : LossyStream size : 231 MiB (25%)Title : EnglishLanguage : EnglishService kind : Complete MainDefault : NoForced : NoText #1ID : 4Format : UTF-8Codec ID : S_TEXT/UTF8Codec ID/Info : UTF-8 Plain TextDuration : 49 min 3 sBit rate : 0 b/sCount of elements : 5Stream size : 173 Bytes (0%)Language : ItalianDefault : YesForced : YesText #2ID : 5Format : UTF-8Codec ID : S_TEXT/UTF8Codec ID/Info : UTF-8 Plain TextDuration : 49 min 3 sBit rate : 82 b/sCount of elements : 824Stream size : 29.8 KiB (0%)Language : ItalianDefault : NoForced : No[/spoiler

Dimensione: 9.09 GB

Categoria: SerieTv

ISCRIVETEVI AL FORUM

Presto ci saranno molte novità, registratevi gratuitamente al forum

Ricordiamo a tutti che su Cultura Digitale non sono presenti nessun file, questo torrent è di proprietà del Corsaro nero. pubblicato sul loro sito al seguente indirizzo: The.Politician.S02E01-07.1080p.NF.WEBRip.ITA.ENG.DDP5.1.x264-BlackBit -

COLLEGAMENTO AL TORRENT

Importante: è un link con magnet, si dovrebbe aprire da solo. Se vi esce errore 404 nel vostro computer non è installato un programma per torrent o l’estensione che fa aprire i file magnet.

 Copiate questo link
magnet:?xt=urn:btih:cc9de8a8b57961091f01d42ac9a1d2f80aec28ca&dn=The.Politician.S02E01-07.1080p.NF.WEBRip.ITA.ENG.DDP5.1.x264-BlackBit&tr=udp%3A%2F%2Ftracker.coppersurfer.tk%3A6969%2Fannounce

Per firefox usare questa estensione – Per Chrome usare questa estensione
Oppure usare Torxh web browser

Se i link risultassero non raggiungibili o bloccati a livello DNS

Seguite la guida Su Questo Articolo : GUIDA COME CAMBIARE DNS