– The.Sinner.S03E08.Part.VIII.1080p.WEBMux.ITA.ENG.x264-BlackBit.mkv – – Torrent dowload

Ecco a voi il torrent – The.Sinner.S03E08.Part.VIII.1080p.WEBMux.ITA.ENG.x264-BlackBit.mkv – proveniente dagli archivi di [Torrent]

Lo staff di Cultura digitale al fine di promuovere la cultura condivide i contenuti presenti sul sito il corsaro nero.

Nome del Torrent: – The.Sinner.S03E08.Part.VIII.1080p.WEBMux.ITA.ENG.x264-BlackBit.mkv –

Descrizione del torrent: Clicca qua per ingrandire questa immagine[size=36pt]The Sinner – Stagione 3[/size]Clicca qua per ingrandire questa immagineTitolo originale The SinnerPaese Stati Uniti d'AmericaAnno 2017 – in produzioneFormato serie TVGenere drammatico, thriller, gialloStagioni 3Episodi 24Durata 40-46 min (episodio)Lingua originale ingleseRapporto 16:9Clicca qua per ingrandire questa immagineThe Sinner 3 segue il detective Harry Ambrose (Bill Pullman) mentre inizia un'indagine di routine su un tragico incidente d'auto nella periferia di Dorchester, nello stato di New York. Ambrogio scopre un crimine nascosto che lo trascina nel caso più pericoloso e inquietante della sua carriera.Clicca qua per ingrandire questa immagine[spoiler][/spoiler]Clicca qua per ingrandire questa immagine[spoiler]GeneralUnique ID : 205771756297274460846458582466034185988 (0x9ACE32DF10BBD18248CB7F446A28B704)Complete name : C:UsersAdministratorVideosThe Sinner S03The.Sinner.S03E01.Part.I.1080p.WEBMux.ITA.ENG.x264-BlackBit.mkvFormat : MatroskaFormat version : Version 4File size : 3.15 GiBDuration : 49 min 8 sOverall bit rate : 9 183 kb/sEncoded date : UTC 2020-09-09 20:33:49Writing application : mkvmerge v50.0.0 ('Awakenings&#39 64-bitWriting library : libebml v1.4.0 + libmatroska v1.6.2VideoID : 1Format : AVCFormat/Info : Advanced Video CodecFormat profile : [email protected] settings : CABAC / 4 Ref FramesFormat settings, CABAC : YesFormat settings, Reference : 4 framesCodec ID : V_MPEG4/ISO/AVCDuration : 49 min 8 sBit rate mode : ConstantBit rate : 8 348 kb/sNominal bit rate : 10 000 kb/sWidth : 1 920 pixelsHeight : 1 080 pixelsDisplay aspect ratio : 16:9Frame rate mode : ConstantFrame rate : 23.976 (24000/1001) FPSColor space : YUVChroma subsampling : 4:2:0Bit depth : 8 bitsScan type : ProgressiveBits/(Pixel*Frame) : 0.168Stream size : 2.87 GiB (91%)Default : YesForced : YesColor range : LimitedColor primaries : BT.709Transfer characteristics : BT.709Matrix coefficients : BT.709Audio #1ID : 2Format : AC-3Format/Info : Audio Coding 3Commercial name : Dolby DigitalCodec ID : A_AC3Duration : 49 min 8 sBit rate mode : ConstantBit rate : 192 kb/sChannel(s) : 2 channelsChannel layout : L RSampling rate : 48.0 kHzFrame rate : 31.250 FPS (1536 SPF)Compression mode : LossyStream size : 67.5 MiB (2%)Language : ItalianService kind : Complete MainDefault : YesForced : YesAudio #2ID : 3Format : E-AC-3Format/Info : Enhanced AC-3Commercial name : Dolby Digital PlusCodec ID : A_EAC3Duration : 49 min 8 sBit rate mode : ConstantBit rate : 640 kb/sChannel(s) : 6 channelsChannel layout : L R C LFE Ls RsSampling rate : 48.0 kHzFrame rate : 31.250 FPS (1536 SPF)Compression mode : LossyStream size : 225 MiB (7%)Language : EnglishService kind : Complete MainDefault : NoForced : NoText #1ID : 4Format : UTF-8Codec ID : S_TEXT/UTF8Codec ID/Info : UTF-8 Plain TextDuration : 48 min 30 sBit rate : 65 b/sCount of elements : 752Stream size : 23.2 KiB (0%)Language : ItalianDefault : NoForced : NoText #2ID : 5Format : UTF-8Codec ID : S_TEXT/UTF8Codec ID/Info : UTF-8 Plain TextDuration : 48 min 17 sBit rate : 68 b/sCount of elements : 936Stream size : 24.1 KiB (0%)Title : SDHLanguage : EnglishDefault : NoForced : No[/spoiler]

Dimensione:2.59 GB

Categoria: SerieTv

ISCRIVETEVI AL FORUM

Presto ci saranno molte novità, registratevi gratuitamente al forum

Ricordiamo a tutti che su Cultura Digitale non sono presenti nessun file, questo torrent è di proprietà del Corsaro nero. pubblicato sul loro sito al seguente indirizzo: – The.Sinner.S03E08.Part.VIII.1080p.WEBMux.ITA.ENG.x264-BlackBit.mkv –

COLLEGAMENTO AL TORRENT

Importante: è un link con magnet, si dovrebbe aprire da solo. Se vi esce errore 404 nel vostro computer non è installato un programma per torrent o l’estensione che fa aprire i file magnet.

 Copiate questo link
magnet:?xt=urn:btih:e908d9108715928695559d778c76f263f1265361&dn=The.Sinner.S03E08.Part.VIII.1080p.WEBMux.ITA.ENG.x264-BlackBit.mkv&tr=udp%3A%2F%2Ftracker.coppersurfer.tk%3A6969%2Fannounce

Per firefox usare questa estensione – Per Chrome usare questa estensione
Oppure usare Torxh web browser

Se i link risultassero non raggiungibili o bloccati a livello DNS

Seguite la guida Su Questo Articolo : GUIDA COME CAMBIARE DNS