– The.Sinner.S03E08.Parte.VIII.ITA.ENG.1080p.AMZN.WEB-DLMux.H.264-MeM.mkv – – Torrent dowload

Ecco a voi il torrent – The.Sinner.S03E08.Parte.VIII.ITA.ENG.1080p.AMZN.WEB-DLMux.H.264-MeM.mkv – proveniente dagli archivi di [Torrent]

Lo staff di Cultura digitale al fine di promuovere la cultura condivide i contenuti presenti sul sito il corsaro nero.

Nome del Torrent: – The.Sinner.S03E08.Parte.VIII.ITA.ENG.1080p.AMZN.WEB-DLMux.H.264-MeM.mkv –

Descrizione del torrent: [center]The.Sinner.S03.ITA.ENG.1080p.AMZN.WEB-DLMux.H.264-MeMClicca qua per ingrandire questa immagineTitolo Originale: The SinnerAnno: 2019Stagione: 3Episodi: 8Durata: 42 – 92 minuti (circa)Genere: drammatico, thriller, giallo[size=14pt]_- Trama -_[/size]La terza stagione della serie TV seguirà le vicende del detective Harry Ambrose ( interpretato da Bill Pullman) mentre indaga su un tragico incidente d’auto nello stato di New York.Apparentemente un caso semplice e di routine, durante l’indagine però Ambrose “scopre un crimine nascosto che lo trascina nel caso più pericoloso e inquietante della sua carriera”Clicca qua per ingrandire questa immagine Clicca qua per ingrandire questa immagine[code]The.Sinner.S03E01.Parte.I.ITA.ENG.1080p.AMZN.WEB-DLMux.H.264-MeM.mkvFormat                      : MatroskaFormat version              : Version 4 / Version 2File size                   : 3.06 GiBDuration                    : 47mn 7sOverall bit rate            : 9 283 KbpsEncoded date                : UTC 2020-09-09 20:42:33Writing application         : mkvmerge v7.6.0 ('Garden of Dreams&#39 64bit built on Feb  8 2015 15:12:28Writing library             : libebml v1.3.1 + libmatroska v1.4.2VideoID                          : 1Format                      : AVCFormat/Info                 : Advanced Video CodecFormat profile              : [email protected] settings, CABAC      : YesFormat settings, ReFrames   : 4 framesCodec ID                    : V_MPEG4/ISO/AVCDuration                    : 47mn 7sBit rate mode               : ConstantBit rate                    : 8 705 KbpsNominal bit rate            : 10 000 KbpsWidth                       : 1 920 pixelsHeight                      : 1 080 pixelsDisplay aspect ratio        : 16:9Frame rate mode             : ConstantFrame rate                  : 25.000 fpsOriginal frame rate         : 23.976 (24000/1001) fpsColor space                 : YUVChroma subsampling          : 4:2:0Bit depth                   : 8 bitsScan type                   : ProgressiveBits/(Pixel*Frame)          : 0.168Stream size                 : 2.87 GiB (94%)Default                     : YesForced                      : NoColor range                 : LimitedColor primaries             : BT.709Transfer characteristics    : BT.709Matrix coefficients         : BT.709Audio #1ID                          : 2Format                      : AC-3Format/Info                 : Audio Coding 3Mode extension              : CM (complete main)Format settings, Endianness : BigCodec ID                    : A_AC3Duration                    : 47mn 7sBit rate mode               : ConstantBit rate                    : 192 KbpsChannel(s)                  : 2 channelsChannel positions           : Front: L RSampling rate               : 48.0 KHzFrame rate                  : 31.250 fps (1536 spf)Compression mode            : LossyStream size                 : 64.7 MiB (2%)Title                       : ITALanguage                    : ItalianDefault                     : YesForced                      : YesAudio #2ID                          : 3Format                      : AC-3Format/Info                 : Audio Coding 3Mode extension              : CM (complete main)Format settings, Endianness : BigCodec ID                    : A_AC3Duration                    : 47mn 7sBit rate mode               : ConstantBit rate                    : 384 KbpsChannel(s)                  : 6 channelsChannel positions           : Front: L C R, Side: L R, LFESampling rate               : 48.0 KHzFrame rate                  : 31.250 fps (1536 spf)Compression mode            : LossyStream size                 : 129 MiB (4%)Title                       : ENGLanguage                    : EnglishDefault                     : NoForced                      : NoText #1ID                          : 4Format                      : UTF-8Codec ID                    : S_TEXT/UTF8Codec ID/Info               : UTF-8 Plain TextDuration                    : 46mn 31sBit rate                    : 68 bpsCount of elements           : 752Stream size                 : 23.3 KiB (0%)Language                    : ItalianDefault                     : NoForced                      : NoText #2ID                          : 5Format                      : UTF-8Codec ID                    : S_TEXT/UTF8Codec ID/Info               : UTF-8 Plain TextDuration                    : 46mn 19sBit rate                    : 70 bpsCount of elements           : 936Stream size                 : 24.1 KiB (0%)Title                       : SDHLanguage                    : EnglishDefault                     : NoForced                      : NoClicca qua per ingrandire questa immagine[/center]

Dimensione:2.50 GB

Categoria: SerieTv

ISCRIVETEVI AL FORUM

Presto ci saranno molte novità, registratevi gratuitamente al forum

Ricordiamo a tutti che su Cultura Digitale non sono presenti nessun file, questo torrent è di proprietà del Corsaro nero. pubblicato sul loro sito al seguente indirizzo: – The.Sinner.S03E08.Parte.VIII.ITA.ENG.1080p.AMZN.WEB-DLMux.H.264-MeM.mkv –

COLLEGAMENTO AL TORRENT

Importante: è un link con magnet, si dovrebbe aprire da solo. Se vi esce errore 404 nel vostro computer non è installato un programma per torrent o l’estensione che fa aprire i file magnet.

 Copiate questo link
magnet:?xt=urn:btih:be1252666ad2e03362651e76589d447635021e5f&dn=The.Sinner.S03E08.Parte.VIII.ITA.ENG.1080p.AMZN.WEB-DLMux.H.264-MeM.mkv&tr=udp%3A%2F%2Ftracker.opentrackr.org%3A1337%2Fannounce

Per firefox usare questa estensione – Per Chrome usare questa estensione
Oppure usare Torxh web browser

Se i link risultassero non raggiungibili o bloccati a livello DNS

Seguite la guida Su Questo Articolo : GUIDA COME CAMBIARE DNS