– The tax collector-Sangue chiama sangue (2020) ITA-ENG Ac3 5.1 BDRip 1080p H264 [ArMor] – – Torrent dowload

Ecco a voi il torrent – The tax collector-Sangue chiama sangue (2020) ITA-ENG Ac3 5.1 BDRip 1080p H264 [ArMor] – proveniente dagli archivi di [Torrent]

Lo staff di Cultura digitale al fine di promuovere la cultura condivide i contenuti presenti sul sito il corsaro nero.

Nome del Torrent: – The tax collector-Sangue chiama sangue (2020) ITA-ENG Ac3 5.1 BDRip 1080p H264 [ArMor] –

Descrizione del torrent: [center]Clicca qua per ingrandire questa immagineRegista: David AyerGenere: Thriller, DrammaticoAnno: 2020Paese: USAData di uscita: N.D.Clicca qua per ingrandire questa immagineBobby Soto, Shia LaBeouf, Chelsea Rendon, Rene Moran, Karrie Martin, Lana Parrilla, Elpidia Carrillo, George Lopez, Jay Reeves, Juan Carlos Cantu, Brendan Schaub, Cinthya Carmona, Lee CocClicca qua per ingrandire questa immagineThe Tax Collector, film diretto da David Ayer, racconta la storia di David Cuevas (Bobby Soto), che insieme al suo partner Creeper (Shia LaBeouf), lavora come "esattore delle tasse" per conto del boss del crimine Wizard. I due riscuotono il pizzo in tutta la città, assicurandosi che le persone paghino per non avere ritorsioni. Quando un vecchio rivale di Wizard torna a Los Angeles dal Messico mette in pericolo l'intera gang e David dovrà proteggere quello che ha di più caro al mondo, la sua famiglia.Clicca qua per ingrandire questa immagineA "tax collector" working for a local crime lord finds his family's safety compromised when the rival of his boss shows up in L.A. and upends the business. Clicca qua per ingrandire questa immagineClicca qua per ingrandire questa immagineGeneralUnique ID                                : 229024030529890481879889269180929806026 (0xAC4C6C80A8A61EC4A42148EF74020ECA)Complete name                            : The tax collector-Sangue chiama sangue (2020) ITA-ENG Ac3 5.1 BDRip 1080p H264 [ArMor].mkvFormat                                   : MatroskaFormat version                           : Version 4File size                                : 3.03 GiBDuration                                 : 1 h 35 minOverall bit rate                         : 4 561 kb/sEncoded date                             : UTC 2020-10-27 16:45:32Writing application                      : mkvmerge v15.0.0 ('Duel with the Devil&#39 64-bitWriting library                          : libebml v1.3.5 + libmatroska v1.4.5 / Lavf58.29.100VideoID                                       : 1Format                                   : AVCFormat/Info                              : Advanced Video CodecFormat profile                           : [email protected] settings                          : CABAC / 4 Ref FramesFormat settings, CABAC                   : YesFormat settings, Reference frames        : 4 framesCodec ID                                 : V_MPEG4/ISO/AVCDuration                                 : 1 h 35 minBit rate                                 : 3 663 kb/sWidth                                    : 1 920 pixelsHeight                                   : 1 038 pixelsDisplay aspect ratio                     : 1.85:1Frame rate mode                          : ConstantFrame rate                               : 24.000 FPSColor space                              : YUVChroma subsampling                       : 4:2:0Bit depth                                : 8 bitsScan type                                : ProgressiveBits/(Pixel*Frame)                       : 0.077Stream size                              : 2.44 GiB (80%)Writing library                          : x264 core 157 r2935 545de2fEncoding settings                        : cabac=1 / ref=2 / deblock=1:0:0 / analyse=0x1:0x111 / me=hex / subme=6 / psy=1 / psy_rd=1.00:0.00 / mixed_ref=1 / me_range=16 / chroma_me=1 / trellis=1 / 8x8dct=0 / cqm=0 / deadzone=21,11 / fast_pskip=1 / chroma_qp_offset=-2 / threads=18 / lookahead_threads=3 / sliced_threads=0 / nr=0 / decimate=1 / interlaced=0 / bluray_compat=0 / constrained_intra=0 / bframes=3 / b_pyramid=2 / b_adapt=1 / b_bias=0 / direct=1 / weightb=1 / open_gop=0 / weightp=1 / keyint=240 / keyint_min=24 / scenecut=40 / intra_refresh=0 / rc_lookahead=30 / rc=crf / mbtree=1 / crf=20.0 / qcomp=0.60 / qpmin=0 / qpmax=69 / qpstep=4 / vbv_maxrate=20000 / vbv_bufsize=25000 / crf_max=0.0 / nal_hrd=none / filler=0 / ip_ratio=1.40 / aq=1:1.00Default                                  : YesForced                                   : NoColor range                              : LimitedColor primaries                          : BT.709Transfer characteristics                 : BT.709Matrix coefficients                      : BT.709Audio #1ID                                       : 2Format                                   : AC-3Format/Info                              : Audio Coding 3Commercial name                          : Dolby DigitalCodec ID                                 : A_AC3Duration                                 : 1 h 35 minBit rate mode                            : ConstantBit rate                                 : 448 kb/sChannel(s)                               : 6 channelsChannel layout                           : L R C LFE Ls RsSampling rate                            : 48.0 kHzFrame rate                               : 31.250 FPS (1536 SPF)Compression mode                         : LossyStream size                              : 305 MiB (10%)Title                                    : ItunesLanguage                                 : ItalianService kind                             : Complete MainDefault                                  : YesForced                                   : NoAudio #2ID                                       : 3Format                                   : AC-3Format/Info                              : Audio Coding 3Commercial name                          : Dolby DigitalCodec ID                                 : A_AC3Duration                                 : 1 h 35 minBit rate mode                            : ConstantBit rate                                 : 448 kb/sChannel(s)                               : 6 channelsChannel layout                           : L R C LFE Ls RsSampling rate                            : 48.0 kHzFrame rate                               : 31.250 FPS (1536 SPF)Compression mode                         : LossyStream size                              : 305 MiB (10%)Title                                    : DTSLanguage                                 : EnglishService kind                             : Complete MainDefault                                  : NoForced                                   : No[/center]Clicca qua per ingrandire questa immagine

Dimensione:3.03 GB

Categoria: BDRip

ISCRIVETEVI AL FORUM

Presto ci saranno molte novità, registratevi gratuitamente al forum

Ricordiamo a tutti che su Cultura Digitale non sono presenti nessun file, questo torrent è di proprietà del Corsaro nero. pubblicato sul loro sito al seguente indirizzo: – The tax collector-Sangue chiama sangue (2020) ITA-ENG Ac3 5.1 BDRip 1080p H264 [ArMor] –

COLLEGAMENTO AL TORRENT

Importante: è un link con magnet, si dovrebbe aprire da solo. Se vi esce errore 404 nel vostro computer non è installato un programma per torrent o l’estensione che fa aprire i file magnet.

 Copiate questo link
magnet:?xt=urn:btih:6eb2079d65be8d09988902208b39f793b397ab64&dn=The+tax+collector-Sangue+chiama+sangue+%282020%29+ITA-ENG+Ac3+5.1+BDRip+1080p+H264+%5BArMor%5D&tr=udp%3A%2F%2Ftracker.coppersurfer.tk%3A6969%2Fannounce

Per firefox usare questa estensione – Per Chrome usare questa estensione
Oppure usare Torxh web browser

Se i link risultassero non raggiungibili o bloccati a livello DNS

Seguite la guida Su Questo Articolo : GUIDA COME CAMBIARE DNS