The Walking Dead 10×10 Stalker.720p.H264.ita.eng Ac3 5.1.sub.ita.eng-MIRCrew – Torrent download

I Testi di tutte le canzoni del Festival di Sanremo 2020
TUTTE LE CANZONI DI SANREMO 2020

Ecco a voi il torrent The Walking Dead 10x10 Stalker.720p.H264.ita.eng Ac3 5.1.sub.ita.eng-MIRCrew - proveniente dagli archivi di Torrent

Lo staff di Cultura digitale al fine di promuovere la cultura condivide i contenuti presenti sul sito il corsaro nero.

Nome del Torrent: The Walking Dead 10x10 Stalker.720p.H264.ita.eng Ac3 5.1.sub.ita.eng-MIRCrew -

Descrizione del torrent: The Walking Dead 10x10 - Stalker.720p.H264.ita.eng Ac3 5.1.sub.ita.eng-MIRCrewLa decima stagione della serie televisiva The Walking Dead, composta da sedici episodi, è trasmessa in prima visione assoluta negli Stati Uniti d'America dall'emittente AMC dal 6 ottobre 2019Episodi:1 Lines We Cross I confini che superiamo 2 We Are the End of the World 3 Ghosts - Fantasmi 4 Silence the Whisperers - Ascolta 5 What It Always Is - Come sempre 6 Bonds - Legami 7 Open Your Eyes  - Fai la tua parte 8 The World Before - Il mondo precedente 9               Squeeze - La grotta10             Stalker GeneralComplete name                            : The Walking Dead.10x10 - Stalker.720p.H264.ita.eng-Ac3 5.1.sub.ita.eng MIRCrewThe Walking Dead.10x10 - Stalker.720p.H264.ita.eng-Ac3 5.1.sub.ita.eng MIRCrew.mkvFormat                                   : MatroskaFormat version                           : Version 2File size                                : 948 MiBDuration                                 : 45mn 53sOverall bit rate                         : 2 889 KbpsMovie name                               : MIRCrewEncoded date                             : UTC 2020-03-03 17:13:10Writing application                      : Lavf54.63.100Writing library                          : Lavf54.63.100COMMENT                                  : MIRCrewVideoID                                       : 1Format                                   : AVCFormat/Info                              : Advanced Video CodecFormat profile                           : [email protected] settings, CABAC                   : YesFormat settings, ReFrames                : 2 framesCodec ID                                 : V_MPEG4/ISO/AVCDuration                                 : 45mn 53sBit rate                                 : 2 000 KbpsWidth                                    : 1 280 pixelsHeight                                   : 720 pixelsDisplay aspect ratio                     : 16:9Frame rate mode                          : VariableFrame rate                               : 23.976 fpsColor space                              : YUVChroma subsampling                       : 4:2:0Bit depth                                : 8 bitsScan type                                : ProgressiveBits/(Pixel*Frame)                       : 0.091Stream size                              : 635 MiB (67%)Writing library                          : x264 core 130 r2273Encoding settings                        : cabac=1 / ref=2 / deblock=1:0:0 / analyse=0x1:0x131 / me=hex / subme=7 / psy=1 / psy_rd=1.00:0.00 / mixed_ref=0 / me_range=16 / chroma_me=1 / trellis=1 / 8x8dct=0 / cqm=0 / deadzone=21,11 / fast_pskip=1 / chroma_qp_offset=-2 / threads=9 / lookahead_threads=1 / sliced_threads=0 / nr=0 / decimate=1 / interlaced=0 / bluray_compat=0 / constrained_intra=0 / bframes=3 / b_pyramid=0 / b_adapt=1 / b_bias=0 / direct=3 / weightb=1 / open_gop=0 / weightp=2 / keyint=230 / keyint_min=23 / scenecut=40 / intra_refresh=0 / rc_lookahead=40 / rc=abr / mbtree=1 / bitrate=2000 / ratetol=1.0 / qcomp=0.60 / qpmin=10 / qpmax=69 / qpstep=4 / vbv_maxrate=24000 / vbv_bufsize=24000 / nal_hrd=none / ip_ratio=1.40 / aq=1:1.00Language                                 : ItalianDefault                                  : YesForced                                   : YesDURATION                                 : 00:45:53.418000000NUMBER_OF_FRAMES                         : 66016NUMBER_OF_BYTES                          : 3305706483_STATISTICS_WRITING_APP                  : mkvmerge v43.0.0 ('The Quartermaster' 64-bit_STATISTICS_WRITING_DATE_UTC             : 2020-03-02 21:34:56_STATISTICS_TAGS                         : BPS DURATION NUMBER_OF_FRAMES NUMBER_OF_BYTESAudio #1ID                                       : 2Format                                   : AC-3Format/Info                              : Audio Coding 3Mode extension                           : CM (complete main)Codec ID                                 : A_AC3Duration                                 : 45mn 53sBit rate mode                            : ConstantBit rate                                 : 448 KbpsChannel(s)                               : 6 channelsChannel positions                        : Front: L C R, Side: L R, LFESampling rate                            : 48.0 KHzBit depth                                : 16 bitsCompression mode                         : LossyDelay relative to video                  : 1mn 5sStream size                              : 147 MiB (16%)Language                                 : ItalianDefault                                  : YesForced                                   : YesDURATION                                 : 00:45:53.440000000NUMBER_OF_FRAMES                         : 86045NUMBER_OF_BYTES                          : 220275200_STATISTICS_WRITING_APP                  : mkvmerge v43.0.0 ('The Quartermaster' 64-bit_STATISTICS_WRITING_DATE_UTC             : 2020-03-02 21:34:56_STATISTICS_TAGS                         : BPS DURATION NUMBER_OF_FRAMES NUMBER_OF_BYTESAudio #2ID                                       : 3Format                                   : AC-3Format/Info                              : Audio Coding 3Mode extension                           : CM (complete main)Codec ID                                 : A_AC3Duration                                 : 45mn 53sBit rate mode                            : ConstantBit rate                                 : 448 KbpsChannel(s)                               : 6 channelsChannel positions                        : Front: L C R, Side: L R, LFESampling rate                            : 48.0 KHzBit depth                                : 16 bitsCompression mode                         : LossyDelay relative to video                  : 1mn 5sStream size                              : 147 MiB (16%)Language                                 : EnglishDefault                                  : NoForced                                   : NoDURATION                                 : 00:45:53.440000000NUMBER_OF_FRAMES                         : 86045NUMBER_OF_BYTES                          : 220275200_STATISTICS_WRITING_APP                  : mkvmerge v43.0.0 ('The Quartermaster' 64-bit_STATISTICS_WRITING_DATE_UTC             : 2020-03-02 21:34:56_STATISTICS_TAGS                         : BPS DURATION NUMBER_OF_FRAMES NUMBER_OF_BYTES

Dimensione: 948.33 MB

Categoria: SerieTv

ISCRIVETEVI AL FORUM

Presto ci saranno molte novità, registratevi gratuitamente al forum

Ricordiamo a tutti che su Cultura Digitale non sono presenti nessun file, questo torrent è di proprietà del Corsaro nero. pubblicato sul loro sito al seguente indirizzo: The Walking Dead 10x10 Stalker.720p.H264.ita.eng Ac3 5.1.sub.ita.eng-MIRCrew -

COLLEGAMENTO AL TORRENT

Importante: è un link con magnet, si dovrebbe aprire da solo. Se vi esce errore 404 nel vostro computer non è installato un programma per torrent o l’estensione che fa aprire i file magnet.

 Copiate questo link
magnet:?xt=urn:btih:87363a0d8b7b0d8fcc9bc42c65c0ea3af3aaf208&dn=The+Walking+Dead+10x10+-+Stalker.720p.H264.ita.eng+Ac3+5.1.sub.ita.eng-MIRCrew&tr=udp%3A%2F%2Ftracker.coppersurfer.tk%3A6969%2Fannounce

Per firefox usare questa estensione – Per Chrome usare questa estensione
Oppure usare Torxh web browser

Se i link risultassero non raggiungibili o bloccati a livello DNS

Seguite la guida Su Questo Articolo : GUIDA COME CAMBIARE DNS 

I Testi di tutte le canzoni del Festival di Sanremo 2020
TUTTE LE CANZONI DI SANREMO 2020