The Witcher Stagione 1 epi 01-08.1080p.H264.ita.eng.Ac3-5.1.sub.ita.eng-MIRCrew – Torrent download

I Testi di tutte le canzoni del Festival di Sanremo 2020
TUTTE LE CANZONI DI SANREMO 2020

Ecco a voi il torrent The Witcher Stagione 1 epi 01-08.1080p.H264.ita.eng.Ac3-5.1.sub.ita.eng-MIRCrew - proveniente dagli archivi di Torrent

Lo staff di Cultura digitale al fine di promuovere la cultura condivide i contenuti presenti sul sito il corsaro nero.

Nome del Torrent: The Witcher Stagione 1 epi 01-08.1080p.H264.ita.eng.Ac3-5.1.sub.ita.eng-MIRCrew -

Descrizione del torrent: The Witcher - Stagione 1 epi 01-08.1080p.H264.ita.eng.Ac3-5.1.sub.ita.eng-MIRCrew Titolo originale The WitcherPaese Polonia, Stati Uniti d';AmericaAnno 2019 – in produzioneFormato serie TVGenere fantastico, azione, avventuraStagioni 1Episodi 8Durata 47-67 min (episodio)Lingua originale ingleseRapporto 2.00:1 Episodi:1 The End';s Beginning L';inizio della fine 2 Four Marks Quattro marchi3 Betrayer Moon Luna traditrice4 Of Banquets, Bastards and Burials Banchetti, bastardi e sepolture5 Bottled Appetites Desideri incontenibili6 Rare Species Specie rara7 Before a Fall Prima di una sconfitta8 Much More Molto di piùThe Witcher è una serie televisiva polacco-statunitense distribuita dal 20 dicembre 2019 sulla piattaforma di streaming Netflix. Il primo trailer è stato pubblicato il 20 luglio 2019. Creata da Lauren Schmidt Hissrich, la serie è basata sulla Saga di Geralt di Rivia dell';autore polacco Andrzej Sapkowski.The Witcher is an American fantasy drama series produced by Lauren Schmidt Hissrich. It is based on the book series of the same name by Polish writer Andrzej Sapkowski. Cast:    Henry Cavill: Geralt di Rivia    Anya Chalotra: Yennefer di Vengerberg    Freya Allan: Cirilla / Ciri    Joey Batey: Ranuncolo    MyAnna Buring: Tissaia de Vries    Royce Pierreson: Istredd    Eamon Farren: Cahir    Mimi Ndiweni: Fringilla Vigo    Wilson Radjou-Pujalte: Dara    Anna Shaffer: Triss Merigold    Therica Wilson-Read: Sabrina    Mahesh Jadu: Vilgefortz Complete name                            : The Witcher - Stagione 1 epi 01-08.1080p.ita.eng.sub.ita.eng-MIRCrewThe Witcher 01 L';inizio della fine.mkvFormat                                   : MatroskaFormat version                           : Version 2File size                                : 1.47 GiBDuration                                 : 1h 1mnOverall bit rate                         : 3 444 KbpsMovie name                               : robbyrsEncoded date                             : UTC 2020-01-01 21:51:36Writing application                      : Lavf54.63.100Writing library                          : Lavf54.63.100COMMENT                                  : robbyrsCOPYRIGHT                                : robbyrsVideoID                                       : 1Format                                   : AVCFormat/Info                              : Advanced Video CodecFormat profile                           : [email protected] settings, CABAC                   : YesFormat settings, ReFrames                : 2 framesCodec ID                                 : V_MPEG4/ISO/AVCDuration                                 : 1h 1mnBit rate                                 : 2 600 KbpsWidth                                    : 1 920 pixelsHeight                                   : 1 080 pixelsDisplay aspect ratio                     : 16:9Frame rate mode                          : VariableFrame rate                               : 24.000 fpsColor space                              : YUVChroma subsampling                       : 4:2:0Bit depth                                : 8 bitsScan type                                : ProgressiveBits/(Pixel*Frame)                       : 0.052Stream size                              : 1.06 GiB (72%)Title                                    : NFWriting library                          : x264 core 130 r2273Encoding settings                        : cabac=1 / ref=2 / deblock=1:0:0 / analyse=0x1:0x131 / me=hex / subme=7 / psy=1 / psy_rd=1.00:0.00 / mixed_ref=0 / me_range=16 / chroma_me=1 / trellis=1 / 8x8dct=0 / cqm=0 / deadzone=21,11 / fast_pskip=1 / chroma_qp_offset=-2 / threads=9 / lookahead_threads=1 / sliced_threads=0 / nr=0 / decimate=1 / interlaced=0 / bluray_compat=0 / constrained_intra=0 / bframes=3 / b_pyramid=0 / b_adapt=1 / b_bias=0 / direct=3 / weightb=1 / open_gop=0 / weightp=2 / keyint=240 / keyint_min=24 / scenecut=40 / intra_refresh=0 / rc_lookahead=40 / rc=abr / mbtree=1 / bitrate=2600 / ratetol=1.0 / qcomp=0.60 / qpmin=10 / qpmax=69 / qpstep=4 / vbv_maxrate=24000 / vbv_bufsize=24000 / nal_hrd=none / ip_ratio=1.40 / aq=1:1.00Language                                 : ItalianDefault                                  : YesForced                                   : YesDURATION                                 : 01:01:04.584000000Audio #1ID                                       : 2Format                                   : AC-3Format/Info                              : Audio Coding 3Mode extension                           : CM (complete main)Codec ID                                 : A_AC3Duration                                 : 1h 1mnBit rate mode                            : ConstantBit rate                                 : 448 KbpsChannel(s)                               : 6 channelsChannel positions                        : Front: L C R, Side: L R, LFESampling rate                            : 48.0 KHzBit depth                                : 16 bitsCompression mode                         : LossyStream size                              : 196 MiB Default                                  : YesForced                                   : YesAudio #2ID                                       : 3Format                                   : AC-3Format/Info                              : Audio Coding 3Mode extension                           : CM (complete main)Codec ID                                 : A_AC3Duration                                 : 1h 1mnBit rate mode                            : ConstantBit rate                                 : 448 KbpsChannel(s)                               : 6 channelsChannel positions                        : Front: L C R, Side: L R, LFESampling rate                            : 48.0 KHzBit depth                                : 16 bitsStream size                              : 196 MiB Compression mode                         : LossyDefault                                  : No

Dimensione: 11.33 GB

Categoria: BDRip

ISCRIVETEVI AL FORUM

Presto ci saranno molte novità, registratevi gratuitamente al forum

Ricordiamo a tutti che su Cultura Digitale non sono presenti nessun file, questo torrent è di proprietà del Corsaro nero. pubblicato sul loro sito al seguente indirizzo: The Witcher Stagione 1 epi 01-08.1080p.H264.ita.eng.Ac3-5.1.sub.ita.eng-MIRCrew -

COLLEGAMENTO AL TORRENT

Importante: è un link con magnet, si dovrebbe aprire da solo. Se vi esce errore 404 nel vostro computer non è installato un programma per torrent o l’estensione che fa aprire i file magnet.

 Copiate questo link
magnet:?xt=urn:btih:215886f168a6ec1306ef0a8a18a168f0ca5016af&dn=The+Witcher+-+Stagione+1+epi+01-08.1080p.H264.ita.eng.Ac3-5.1.sub.ita.eng-MIRCrew&tr=udp%3A%2F%2Ftracker.coppersurfer.tk%3A6969%2Fannounce

Per firefox usare questa estensione – Per Chrome usare questa estensione
Oppure usare Torxh web browser

Se i link risultassero non raggiungibili o bloccati a livello DNS

Seguite la guida Su Questo Articolo : GUIDA COME CAMBIARE DNS 

I Testi di tutte le canzoni del Festival di Sanremo 2020
TUTTE LE CANZONI DI SANREMO 2020