The.Woods.S01E01-06.WEBRip.ITA.POL.DDP5.1.x264-BlackBit – Torrent download

Ecco a voi il torrent The.Woods.S01E01-06.WEBRip.ITA.POL.DDP5.1.x264-BlackBit - proveniente dagli archivi di Torrent

Lo staff di Cultura digitale al fine di promuovere la cultura condivide i contenuti presenti sul sito il corsaro nero.

Nome del Torrent: The.Woods.S01E01-06.WEBRip.ITA.POL.DDP5.1.x264-BlackBit -

Descrizione del torrent: Estate Di Morte - Stagione 1itolo originale The WoodsPaese PoloniaAnno 2020Formato serie TVGenere drammatico, crime, mysteryStagioni 1Episodi 6Lingua originale polaccoEstate ’94 – Un campo estivo nei boschi.Quattro persone s’inoltrarono nei boschi senza mai tornare. La polizia trova i corpi di due di loro.Nonostante siano passati degli anni, Pawe? Kopi?ski (Grzegorz Dami?cki), che oggi è il pubblico ministero di Varsavia, non ha mai superato la perdita della sua amata sorella.Inaspettatamente, trova una nuova pista nell’indagine, che sembra collegata alla scomparsa della ragazza nel 1994.Cos’è successo davvero 25 anni fa durante il campo estivo?[spoiler[/spoiler[spoilerGeneralUnique ID : 179686979661074263181121270612780382173 (0x872E7416E8EAD58BA80FE80A368BF7DD)Complete name : C:UsersAdministratorVideosEstate Di Morte S01The.Woods.S01E01.La.Fine.Dell.Innocenza.WEBRip.ITA.POL.DDP5.1.x264-BlackBit.mkvFormat : MatroskaFormat version : Version 4File size : 909 MiBDuration : 54 min 20 sOverall bit rate : 2 338 kb/sEncoded date : UTC 2020-06-12 09:40:07Writing application : mkvmerge v46.0.0 ('No Deeper Escape' 64-bitWriting library : libebml v1.3.10 + libmatroska v1.5.2VideoID : 1Format : AVCFormat/Info : Advanced Video CodecFormat profile : [email protected] settings : CABAC / 16 Ref FramesFormat settings, CABAC : YesFormat settings, Reference : 16 framesCodec ID : V_MPEG4/ISO/AVCDuration : 54 min 20 sBit rate : 1 056 kb/sWidth : 720 pixelsHeight : 360 pixelsDisplay aspect ratio : 2.000Frame rate mode : ConstantFrame rate : 24.000 FPSColor space : YUVChroma subsampling : 4:2:0Bit depth : 8 bitsScan type : ProgressiveBits/(Pixel*Frame) : 0.170Stream size : 411 MiB (45%)Writing library : x264 core 157 r2969 d4099ddEncoding settings : cabac=1 / ref=16 / deblock=1:0:0 / analyse=0x3:0x133 / me=umh / subme=9 / psy=1 / psy_rd=1.00:0.00 / mixed_ref=1 / me_range=24 / chroma_me=1 / trellis=2 / 8x8dct=1 / cqm=0 / deadzone=21,11 / fast_pskip=0 / chroma_qp_offset=-2 / threads=11 / lookahead_threads=1 / sliced_threads=0 / nr=0 / decimate=1 / interlaced=0 / bluray_compat=0 / constrained_intra=0 / bframes=8 / b_pyramid=2 / b_adapt=2 / b_bias=0 / direct=3 / weightb=1 / open_gop=0 / weightp=2 / keyint=240 / keyint_min=24 / scenecut=40 / intra_refresh=0 / rc_lookahead=60 / rc=crf / mbtree=0 / crf=17.0 / qcomp=0.60 / qpmin=0 / qpmax=69 / qpstep=4 / vbv_maxrate=17500 / vbv_bufsize=17500 / crf_max=0.0 / nal_hrd=none / filler=0 / ip_ratio=1.40 / pb_ratio=1.30 / aq=1:1.00Default : YesForced : YesAudio #1ID : 2Format : E-AC-3Format/Info : Enhanced AC-3Commercial name : Dolby Digital PlusCodec ID : A_EAC3Duration : 54 min 20 sBit rate mode : ConstantBit rate : 640 kb/sChannel(s) : 6 channelsChannel layout : L R C LFE Ls RsSampling rate : 48.0 kHzFrame rate : 31.250 FPS (1536 SPF)Compression mode : LossyStream size : 249 MiB (27%)Language : ItalianService kind : Complete MainDefault : YesForced : YesAudio #2ID : 3Format : E-AC-3Format/Info : Enhanced AC-3Commercial name : Dolby Digital PlusCodec ID : A_EAC3Duration : 54 min 20 sBit rate mode : ConstantBit rate : 640 kb/sChannel(s) : 6 channelsChannel layout : L R C LFE Ls RsSampling rate : 48.0 kHzFrame rate : 31.250 FPS (1536 SPF)Compression mode : LossyStream size : 249 MiB (27%)Title : PolishLanguage : PolishService kind : Complete MainDefault : NoForced : NoText #1ID : 4Format : UTF-8Codec ID : S_TEXT/UTF8Codec ID/Info : UTF-8 Plain TextDuration : 32 min 40 sBit rate : 3 b/sCount of elements : 18Stream size : 774 Bytes (0%)Language : ItalianDefault : YesForced : YesText #2ID : 5Format : UTF-8Codec ID : S_TEXT/UTF8Codec ID/Info : UTF-8 Plain TextDuration : 53 min 22 sBit rate : 27 b/sCount of elements : 367Stream size : 10.8 KiB (0%)Title : ItalianLanguage : ItalianDefault : NoForced : No[/spoiler

Dimensione: 4.76 GB

Categoria: SerieTv

ISCRIVETEVI AL FORUM

Presto ci saranno molte novità, registratevi gratuitamente al forum

Ricordiamo a tutti che su Cultura Digitale non sono presenti nessun file, questo torrent è di proprietà del Corsaro nero. pubblicato sul loro sito al seguente indirizzo: The.Woods.S01E01-06.WEBRip.ITA.POL.DDP5.1.x264-BlackBit -

COLLEGAMENTO AL TORRENT

Importante: è un link con magnet, si dovrebbe aprire da solo. Se vi esce errore 404 nel vostro computer non è installato un programma per torrent o l’estensione che fa aprire i file magnet.

 Copiate questo link
magnet:?xt=urn:btih:6109759e6b44428947fc773cf3c7f08bbb49d627&dn=The.Woods.S01E01-06.WEBRip.ITA.POL.DDP5.1.x264-BlackBit&tr=udp%3A%2F%2Ftracker.coppersurfer.tk%3A6969%2Fannounce

Per firefox usare questa estensione – Per Chrome usare questa estensione
Oppure usare Torxh web browser

Se i link risultassero non raggiungibili o bloccati a livello DNS

Seguite la guida Su Questo Articolo : GUIDA COME CAMBIARE DNS