Top Gun (1986) UHDRip 2160p HEVC HDR ITA AC3 ENG TrueHD Atmos 7.1 PirateMKV.mkv – Torrent download

Ecco a voi il torrent Top Gun (1986) UHDRip 2160p HEVC HDR ITA AC3 ENG TrueHD Atmos 7.1 PirateMKV.mkv - proveniente dagli archivi di Torrent

Lo staff di Cultura digitale al fine di promuovere la cultura condivide i contenuti presenti sul sito il corsaro nero.

Nome del Torrent: Top Gun (1986) UHDRip 2160p HEVC HDR ITA AC3 ENG TrueHD Atmos 7.1 PirateMKV.mkv -

Descrizione del torrent: Clicca qua per ingrandire questa immagine[size=36pt]Top Gun[/size]Clicca qua per ingrandire questa immagineTitolo: Top GunNazione: USAAnno: 1986Genere: Action, Drama, RomanceDurata: 110 minRegia: Tony ScottVoti: IMDb (6.9/10), Rotten Tomatoes (54%), Metacritic (50/100)Cast: Tom Cruise, Kelly McGillis, Val Kilmer, Anthony EdwardsClicca qua per ingrandire questa immagineMitchell è un pilota da caccia; segue i corsi di addestramento per entrare nel numero dei "top gun" con la testarda determinazione di essere degno della memoria del padre, caduto in Vietnam. In barba al regolamento, si innamora di Charlie, bionda istruttrice e suo superiore; per di più, si crede responsabile della morte del suo copilota. Grande successo internazionale per questo clip reaganiano che ha fatto di Tom Cruise il divetto rampante dei dimenticabili anni '80. Sequenze aeree spettacolari, ovviamente.Clicca qua per ingrandire questa immagine[spoiler][/spoiler]Clicca qua per ingrandire questa immagine[spoiler]GeneralUnique ID : 126226438822657167723365962730191149999 (0x5EF653ECADF0D455B879EB88A0DF5BAF)Complete name : C:UsersAdministratorDownloadsOldTop gun UHDTop Gun (1986) UHDRip 2160p HEVC HDR ITA AC3 ENG TrueHD Atmos 7.1 PirateMKV.mkvFormat : MatroskaFormat version : Version 4File size : 25.0 GiBDuration : 1 h 49 minOverall bit rate mode : VariableOverall bit rate : 32.7 Mb/sMovie name : Top Gun (1986) - PirateMKVEncoded date : UTC 2020-05-27 18:17:33Writing application : mkvmerge v46.0.0 ('No Deeper Escape' 64-bitWriting library : libebml v1.3.10 + libmatroska v1.5.2 / Lavf58.43.100Copyright : Encoded by PirateMKVVideoID : 1ID in the original source medium : 4113 (0x1011)Format : HEVCFormat/Info : High Efficiency Video CodingFormat profile : Main [email protected]@HighHDR format : SMPTE ST 2086, HDR10 compatibleCodec ID : V_MPEGH/ISO/HEVCDuration : 1 h 49 minBit rate : 27.5 Mb/sWidth : 3 840 pixelsHeight : 1 600 pixelsDisplay aspect ratio : 2.40:1Frame rate mode : ConstantFrame rate : 23.976 (24000/1001) FPSColor space : YUVChroma subsampling : 4:2:0 (Type 2)Bit depth : 10 bitsBits/(Pixel*Frame) : 0.187Stream size : 21.1 GiB (84%)Writing library : x265 3.3+29-1e3dbf09ee4f:[Windows][GCC 9.3.1][64 bit] 10bitEncoding settings : cpuid=1111039 / frame-threads=3 / numa-pools=8 / wpp / no-pmode / no-pme / no-psnr / no-ssim / log-level=2 / input-csp=1 / input-res=3840x1600 / interlace=0 / total-frames=0 / level-idc=51 / high-tier=1 / uhd-bd=0 / ref=5 / no-allow-non-conformance / repeat-headers / annexb / aud / hrd / info / hash=0 / no-temporal-layers / no-open-gop / min-keyint=1 / keyint=24 / gop-lookahead=0 / bframes=8 / b-adapt=2 / b-pyramid / bframe-bias=0 / rc-lookahead=40 / lookahead-slices=0 / scenecut=40 / hist-scenecut=0 / radl=0 / no-splice / no-intra-refresh / ctu=64 / min-cu-size=8 / no-rect / no-amp / max-tu-size=32 / tu-inter-depth=4 / tu-intra-depth=4 / limit-tu=0 / rdoq-level=0 / dynamic-rd=0.00 / no-ssim-rd / signhide / no-tskip / nr-intra=0 / nr-inter=0 / no-constrained-intra / no-strong-intra-smoothing / max-merge=3 / limit-refs=3 / limit-modes / me=2 / subme=5 / merange=57 / temporal-mvp / no-frame-dup / no-hme / weightp / weightb / no-analyze-src-pics / deblock=-3:-3 / no-sao / no-sao-non-deblock / rd=4 / selective-sao=0 / no-early-skip / rskip / fast-intra / no-tskip-fast / no-cu-lossless / b-intra / no-splitrd-skip / rdpenalty=0 / psy-rd=2.00 / psy-rdoq=0.00 / no-rd-refine / no-lossless / cbqpoffs=-3 / crqpoffs=-3 / rc=crf / crf=20.0 / qcomp=0.70 / qpstep=4 / stats-write=0 / stats-read=0 / vbv-maxrate=160000 / vbv-bufsize=160000 / vbv-init=0.9 / crf-max=0.0 / crf-min=0.0 / ipratio=1.40 / pbratio=1.30 / aq-mode=3 / aq-strength=0.70 / no-cutree / zone-count=0 / no-strict-cbr / qg-size=32 / no-rc-grain / qpmax=69 / qpmin=0 / no-const-vbv / sar=1 / overscan=0 / videoformat=5 / range=0 / colorprim=9 / transfer=16 / colormatrix=9 / chromaloc=1 / chromaloc-top=2 / chromaloc-bottom=2 / display-window=0 / master-display=G(13250,34500)B(7500,3000)R(34000,16000)WP(15635,16450)L(40000000,50) / cll=1000,401 / min-luma=0 / max-luma=1023 / log2-max-poc-lsb=8 / vui-timing-info / vui-hrd-info / slices=1 / no-opt-qp-pps / no-opt-ref-list-length-pps / no-multi-pass-opt-rps / scenecut-bias=0.05 / hist-threshold=0.01 / no-opt-cu-delta-qp / no-aq-motion / hdr10 / hdr10-opt / no-dhdr10-opt / no-idr-recovery-sei / analysis-reuse-level=0 / analysis-save-reuse-level=0 / analysis-load-reuse-level=0 / scale-factor=0 / refine-intra=0 / refine-inter=0 / refine-mv=1 / refine-ctu-distortion=0 / no-limit-sao / ctu-info=0 / no-lowpass-dct / refine-analysis-type=0 / copy-pic=1 / max-ausize-factor=1.0 / no-dynamic-refine / no-single-sei / no-hevc-aq / no-svt / no-field / qp-adaptation-range=1.00 / no-scenecut-aware-qpconformance-window-offsets / right=0 / bottom=0 / decoder-max-rate=0Language : EnglishDefault : YesForced : NoColor range : LimitedColor primaries : BT.2020Transfer characteristics : PQMatrix coefficients : BT.2020 non-constantMastering display color primaries : Display P3Mastering display luminance : min: 0.0050 cd/m2, max: 4000 cd/m2Maximum Content Light Level : 1000 cd/m2Maximum Frame-Average Light Level : 401 cd/m2Original source medium : Blu-rayAudio #1ID : 2Format : AC-3Format/Info : Audio Coding 3Commercial name : Dolby DigitalCodec ID : A_AC3Duration : 1 h 49 minBit rate mode : ConstantBit rate : 640 kb/sChannel(s) : 6 channelsChannel layout : L R C LFE Ls RsSampling rate : 48.0 kHzFrame rate : 31.250 FPS (1536 SPF)Compression mode : LossyStream size : 501 MiB (2%)Title : AC3 5.1Language : ItalianService kind : Complete MainDefault : YesForced : NoAudio #2ID : 3Format : MLP FBA 16-chFormat/Info : Meridian Lossless Packing FBA with 16-channel presentationCommercial name : Dolby TrueHD with Dolby AtmosCodec ID : A_TRUEHDDuration : 1 h 49 minBit rate mode : VariableBit rate : 4 476 kb/sMaximum bit rate : 8 049 kb/sChannel(s) : 8 channelsChannel layout : L R C LFE Ls Rs Lb RbSampling rate : 48.0 kHzFrame rate : 1 200.000 FPS (40 SPF)Compression mode : LosslessStream size : 3.42 GiB (14%)Title : TrueHD Atmos 7.1Language : EnglishDefault : NoForced : NoNumber of dynamic objects : 11Bed channel count : 1 channelBed channel configuration : LFEText #1ID : 4Format : UTF-8Codec ID : S_TEXT/UTF8Codec ID/Info : UTF-8 Plain TextDuration : 1 h 26 minBit rate : 0 b/sCount of elements : 9Stream size : 295 Bytes (0%)Title : ForcedLanguage : ItalianDefault : YesForced : YesText #2ID : 5Format : UTF-8Codec ID : S_TEXT/UTF8Codec ID/Info : UTF-8 Plain TextDuration : 1 h 48 minBit rate : 38 b/sCount of elements : 1236Stream size : 30.9 KiB (0%)Title : NormalLanguage : ItalianDefault : NoForced : NoText #3ID : 6Format : UTF-8Codec ID : S_TEXT/UTF8Codec ID/Info : UTF-8 Plain TextDuration : 1 h 40 minBit rate : 60 b/sCount of elements : 1391Stream size : 44.5 KiB (0%)Title : NormalLanguage : EnglishDefault : NoForced : NoText #4ID : 7Format : UTF-8Codec ID : S_TEXT/UTF8Codec ID/Info : UTF-8 Plain TextDuration : 1 h 42 minBit rate : 62 b/sCount of elements : 1499Stream size : 47.0 KiB (0%)Title : SDHLanguage : EnglishDefault : NoForced : NoMenu00:00:00.000 : en:Chapter 0100:02:45.165 : en:Chapter 0200:12:50.060 : en:Chapter 0300:19:08.689 : en:Chapter 0400:25:45.418 : en:Chapter 0500:29:31.186 : en:Chapter 0600:39:12.224 : en:Chapter 0700:48:04.464 : en:Chapter 0800:55:27.657 : en:Chapter 0901:01:32.563 : en:Chapter 1001:04:04.507 : en:Chapter 1101:13:42.835 : en:Chapter 1201:21:14.536 : en:Chapter 1301:27:09.891 : en:Chapter 1401:34:23.866 : en:Chapter 1501:42:03.784 : en:Chapter 16[/spoiler]

Dimensione: 25.02 GB

Categoria: BDRip

ISCRIVETEVI AL FORUM

Presto ci saranno molte novità, registratevi gratuitamente al forum

Ricordiamo a tutti che su Cultura Digitale non sono presenti nessun file, questo torrent è di proprietà del Corsaro nero. pubblicato sul loro sito al seguente indirizzo: Top Gun (1986) UHDRip 2160p HEVC HDR ITA AC3 ENG TrueHD Atmos 7.1 PirateMKV.mkv -

COLLEGAMENTO AL TORRENT

Importante: è un link con magnet, si dovrebbe aprire da solo. Se vi esce errore 404 nel vostro computer non è installato un programma per torrent o l’estensione che fa aprire i file magnet.

 Copiate questo link
magnet:?xt=urn:btih:8bf02596c37232660919578b33e6ff3b010ad73e&dn=Top+Gun+%281986%29+UHDRip+2160p+HEVC+HDR+ITA+AC3+ENG+TrueHD+Atmos+7.1+PirateMKV.mkv&tr=udp%3A%2F%2Ftracker.coppersurfer.tk%3A6969%2Fannounce

Per firefox usare questa estensione – Per Chrome usare questa estensione
Oppure usare Torxh web browser

Se i link risultassero non raggiungibili o bloccati a livello DNS

Seguite la guida Su Questo Articolo : GUIDA COME CAMBIARE DNS