Ultracorpi l invasione continua Body Snatchers (1993).720p.H264.ita.eng.Ac3-5.1.sub.eng-MIRCrew – Torrent download

Ecco a voi il torrent Ultracorpi l invasione continua Body Snatchers (1993).720p.H264.ita.eng.Ac3-5.1.sub.eng-MIRCrew - proveniente dagli archivi di Torrent

Lo staff di Cultura digitale al fine di promuovere la cultura condivide i contenuti presenti sul sito il corsaro nero.

Nome del Torrent: Ultracorpi l invasione continua Body Snatchers (1993).720p.H264.ita.eng.Ac3-5.1.sub.eng-MIRCrew -

Descrizione del torrent: Venite a trovarci su mircrew-releases.orgUltracorpi l'invasione continua - Body Snatchers (1993).720p.H264.ita.eng.Ac3-5.1.sub.eng-MIRCrewNO FOUND ONLY ORIGINAL RELEASEMy release is always in double track audio italian and Original audiofor select it use VLC or dvd player homenot use wmp Ultracorpi l invasione continua - Body Snatchers (1993)Quality MIRCrew on HD 720p da 1,4 gb Titolo originale Body SnatchersPaese di produzione Stati Uniti d'AmericaAnno 1993Durata 87 minGenere fantascienza, orrore, drammaticoRegia Abel FerraraSoggetto Jack Finney (romanzo The Body Snatchers)Sceneggiatura Stuart Gordon, Dennis Paoli, Nicholas St. JohnFotografia Bojan BazelliMontaggio Anthony RedmanMusiche Joe DeliaScenografia John Huke    Gabrielle Anwar: Marty Malone    Billy Wirth: Tim Young    Terry Kinney: Steve Malone    Meg Tilly: Carol Malone    Forest Whitaker: Dottor Collins    R. Lee Ermey: Generale PlattLa famiglia dei Malone per il lavoro del padre si deve trasferire a Ford Daly (Alabama), una base militare. Steve Malone per fare analisi ed accertamenti sulle sostanze tossiche. Ma qui si trovano delle forme aliene vegetali che uccidono gli umani e ne fanno delle copie senza emotività. In another retelling of the story by Jack Finney, Marti Malone's traveling with her dad on holiday. At a gas station, a soldier tells her to not sleep, because 'they' get you when you sleep. Once in the base, she and her father see people acting odd, and soon realise they're aliens.     GeneralComplete name                            : Ultracorpi l'invasione continua - Body Snatchers (1993).720p..ita.eng.sub.eng-MIRCrewUltracorpi l'invasione continua - Body Snatchers (1993).720p..ita.eng.sub.eng-MIRCrew.mkvFormat                                   : MatroskaFormat version                           : Version 2File size                                : 1.38 GiBDuration                                 : 1h 27mnOverall bit rate                         : 2 265 KbpsMovie name                               : MIRCrewEncoded date                             : UTC 2019-11-21 06:43:13Writing application                      : mkvmerge v5.4.0 ('Piper' built on Mar 10 2012 13:34:39Writing library                          : Lavf54.63.100COMMENT                                  : MIRCRewCOPYRIGHT                                : MIRCrewVideoID                                       : 1Format                                   : AVCFormat/Info                              : Advanced Video CodecFormat profile                           : [email protected] settings, CABAC                   : YesFormat settings, ReFrames                : 2 framesCodec ID                                 : V_MPEG4/ISO/AVCDuration                                 : 1h 27mnBit rate                                 : 1 900 KbpsWidth                                    : 1 280 pixelsHeight                                   : 528 pixelsDisplay aspect ratio                     : 2.40:1Original display aspect ratio            : 2.40:1Frame rate mode                          : VariableFrame rate                               : 23.976 fpsColor space                              : YUVChroma subsampling                       : 4:2:0Bit depth                                : 8 bitsScan type                                : ProgressiveBits/(Pixel*Frame)                       : 0.117Stream size                              : 1.12 GiB (81%)Title                                    : MIRCrewWriting library                          : x264 core 130 r2273Encoding settings                        : cabac=1 / ref=2 / deblock=1:-1:-1 / analyse=0x1:0x131 / me=hex / subme=7 / psy=1 / psy_rd=1.00:0.10 / mixed_ref=0 / me_range=16 / chroma_me=1 / trellis=1 / 8x8dct=0 / cqm=0 / deadzone=21,11 / fast_pskip=1 / chroma_qp_offset=-3 / threads=9 / lookahead_threads=1 / sliced_threads=0 / nr=0 / decimate=1 / interlaced=0 / bluray_compat=0 / constrained_intra=0 / bframes=3 / b_pyramid=0 / b_adapt=1 / b_bias=0 / direct=3 / weightb=1 / open_gop=0 / weightp=2 / keyint=230 / keyint_min=23 / scenecut=40 / intra_refresh=0 / rc_lookahead=40 / rc=abr / mbtree=1 / bitrate=1900 / ratetol=1.0 / qcomp=0.60 / qpmin=10 / qpmax=69 / qpstep=4 / vbv_maxrate=24000 / vbv_bufsize=24000 / nal_hrd=none / ip_ratio=1.40 / aq=1:1.00Language                                 : ItalianDefault                                  : YesForced                                   : NoDURATION                                 : 01:27:08.307000000NUMBER_OF_FRAMES                         : 125354NUMBER_OF_BYTES                          : 1567362796_STATISTICS_WRITING_APP                  : mkvmerge v38.0.0 ('The Silent Type' 64-bit_STATISTICS_WRITING_DATE_UTC             : 2019-11-21 06:43:13_STATISTICS_TAGS                         : BPS DURATION NUMBER_OF_FRAMES NUMBER_OF_BYTESAudio #1ID                                       : 2Format                                   : AC-3Format/Info                              : Audio Coding 3Mode extension                           : CM (complete main)Codec ID                                 : A_AC3Duration                                 : 1h 27mnBit rate mode                            : ConstantBit rate                                 : 192 KbpsChannel(s)                               : 2 channelsChannel positions                        : Front: L RSampling rate                            : 48.0 KHzBit depth                                : 16 bitsCompression mode                         : LossyDelay relative to video                  : -5msStream size                              : 120 MiB (8%)Title                                    : Ita Ac3 5.1Language                                 : ItalianDefault                                  : YesForced                                   : NoDURATION                                 : 01:27:08.288000000NUMBER_OF_FRAMES                         : 163384NUMBER_OF_BYTES                          : 125478912_STATISTICS_WRITING_APP                  : mkvmerge v38.0.0 ('The Silent Type' 64-bit_STATISTICS_WRITING_DATE_UTC             : 2019-11-21 06:43:13_STATISTICS_TAGS                         : BPS DURATION NUMBER_OF_FRAMES NUMBER_OF_BYTESAudio #2ID                                       : 3Format                                   : AC-3Format/Info                              : Audio Coding 3Mode extension                           : CM (complete main)Codec ID                                 : A_AC3Duration                                 : 1h 27mnBit rate mode                            : ConstantBit rate                                 : 192 KbpsChannel(s)                               : 2 channelsChannel positions                        : Front: L RSampling rate                            : 48.0 KHzBit depth                                : 16 bitsCompression mode                         : LossyDelay relative to video                  : -5msStream size                              : 120 MiB (8%)Title                                    : Eng Ac3 5.1Language                                 : EnglishDefault                                  : NoForced                                   : NoDURATION                                 : 01:27:08.245000000NUMBER_OF_FRAMES                         : 245074NUMBER_OF_BYTES                          : 146392140_STATISTICS_WRITING_APP                  : mkvmerge v38.0.0 ('The Silent Type' 64-bit_STATISTICS_WRITING_DATE_UTC             : 2019-11-21 06:43:13_STATISTICS_TAGS                         : BPS DURATION NUMBER_OF_FRAMES NUMBER_OF_BYTESMenu00:00:00.000                             : :00:03:58.235                             : :00:06:14.706                             : :00:11:07.540                             : :00:12:34.127                             : :00:15:37.686                             : :00:18:19.221                             : :00:19:44.266                             : :00:21:19.442                             : :00:24:29.092                             : :00:29:00.777                             : :00:32:31.364                             : :00:36:52.126                             : :00:38:46.489                             : :00:40:10.157                             : :00:41:28.235                             : :00:43:23.516                             : :00:49:24.210                             : :00:50:10.672                             : :00:52:52.710                             : :00:55:24.987                             : :01:01:56.335                             : :01:05:35.097                             : :01:11:45.216                             : :01:14:24.126                             : :01:16:53.859                             : :01:19:50.702                             : :01:21:59.912                             : :01:23:44.394                             : :01:27:07.220                             : :

Dimensione: 1.38 GB

Categoria: BDRip

ISCRIVETEVI AL FORUM

Presto ci saranno molte novità, registratevi gratuitamente al forum

Ricordiamo a tutti che su Cultura Digitale non sono presenti nessun file, questo torrent è di proprietà del Corsaro nero. pubblicato sul loro sito al seguente indirizzo: Ultracorpi l invasione continua Body Snatchers (1993).720p.H264.ita.eng.Ac3-5.1.sub.eng-MIRCrew -

COLLEGAMENTO AL TORRENT

Importante: è un link con magnet, si dovrebbe aprire da solo. Se vi esce errore 404 nel vostro computer non è installato un programma per torrent o l’estensione che fa aprire i file magnet.

 Copiate questo link
magnet:?xt=urn:btih:5c832feb3617612f32c0f454b0bbbf2871794261&dn=Ultracorpi+l+invasione+continua+-+Body+Snatchers+%281993%29.720p.H264.ita.eng.Ac3-5.1.sub.eng-MIRCrew&tr=udp%3A%2F%2Ftracker.torrent.eu.org%3A451%2Fannounce

Per firefox usare questa estensione – Per Chrome usare questa estensione
Oppure usare Torxh web browser

Se i link risultassero non raggiungibili o bloccati a livello DNS

Seguite la guida Su Questo Articolo : GUIDA COME CAMBIARE DNS