Un amore criminale-Tout nous separe (2017) ITA-FRE Ac3 5.1 BDRip 1080p H264 [ArMor] – Torrent download

Ecco a voi il torrent Un amore criminale-Tout nous separe (2017) ITA-FRE Ac3 5.1 BDRip 1080p H264 [ArMor] - proveniente dagli archivi di Torrent

Lo staff di Cultura digitale al fine di promuovere la cultura condivide i contenuti presenti sul sito il corsaro nero.

Nome del Torrent: Un amore criminale-Tout nous separe (2017) ITA-FRE Ac3 5.1 BDRip 1080p H264 [ArMor] -

Descrizione del torrent: Diretto da Thierry KlifaDistribuito da Distribuzione di MarteData di rilascio8 novembre 2017Nazione FranciaPlot: Louise copre la figlia disabile Julia, che uccide accidentalmente il suo fidanzato, un giovane spacciatore, e viene ricattata dal miglior amico del ragazzo, in debito con un mafioso. Louise scopre di avere con lui molte cose in comune.A city in Sète. A bourgeois family in a house in the middle of nowhere clashes with slum-dwellers residing in the projects. A mother and her daughter. Two childhood friends. A disappearance. Blackmail. Deneuve plays a mother trying desperately to save her daughter (Diane Kruger), from a questionable relationship. GeneralUnique ID                                : 218899007492271851173351930445777201774 (0xA4AE6A533CC33969B2667CCC71A5EA6E)Complete name                            : Un amore criminale-Tout nous separe (2017) ITA-FRE Ac3 5.1 BDRip 1080p H264 [ArMor.mkvFormat                                   : MatroskaFormat version                           : Version 4File size                                : 3.01 GiBDuration                                 : 1 h 39 minOverall bit rate                         : 4 347 kb/sEncoded date                             : UTC 2020-06-26 14:09:47Writing application                      : mkvmerge v15.0.0 ('Duel with the Devil' 64-bitWriting library                          : libebml v1.3.5 + libmatroska v1.4.5 / Lavf58.29.100VideoID                                       : 1Format                                   : AVCFormat/Info                              : Advanced Video CodecFormat profile                           : [email protected] settings                          : CABAC / 4 Ref FramesFormat settings, CABAC                   : YesFormat settings, Reference frames        : 4 framesCodec ID                                 : V_MPEG4/ISO/AVCDuration                                 : 1 h 39 minBit rate                                 : 3 500 kb/sWidth                                    : 1 920 pixelsHeight                                   : 802 pixelsDisplay aspect ratio                     : 2.40:1Frame rate mode                          : ConstantFrame rate                               : 24.000 FPSColor space                              : YUVChroma subsampling                       : 4:2:0Bit depth                                : 8 bitsScan type                                : ProgressiveBits/(Pixel*Frame)                       : 0.095Stream size                              : 2.39 GiB (79%)Writing library                          : x264 core 157 r2935 545de2fEncoding settings                        : cabac=1 / ref=2 / deblock=1:0:0 / analyse=0x1:0x111 / me=hex / subme=6 / psy=1 / psy_rd=1.00:0.00 / mixed_ref=1 / me_range=16 / chroma_me=1 / trellis=1 / 8x8dct=0 / cqm=0 / deadzone=21,11 / fast_pskip=1 / chroma_qp_offset=-2 / threads=18 / lookahead_threads=3 / sliced_threads=0 / nr=0 / decimate=1 / interlaced=0 / bluray_compat=0 / constrained_intra=0 / bframes=3 / b_pyramid=2 / b_adapt=1 / b_bias=0 / direct=1 / weightb=1 / open_gop=0 / weightp=1 / keyint=240 / keyint_min=24 / scenecut=40 / intra_refresh=0 / rc_lookahead=30 / rc=abr / mbtree=1 / bitrate=3500 / ratetol=1.0 / qcomp=0.60 / qpmin=0 / qpmax=69 / qpstep=4 / vbv_maxrate=50000 / vbv_bufsize=62500 / nal_hrd=none / filler=0 / ip_ratio=1.40 / aq=1:1.00Default                                  : YesForced                                   : NoColor range                              : LimitedColor primaries                          : BT.709Transfer characteristics                 : BT.709Matrix coefficients                      : BT.709Audio #1ID                                       : 2Format                                   : AC-3Format/Info                              : Audio Coding 3Commercial name                          : Dolby DigitalCodec ID                                 : A_AC3Duration                                 : 1 h 39 minBit rate mode                            : ConstantBit rate                                 : 448 kb/sChannel(s)                               : 6 channelsChannel layout                           : L R C LFE Ls RsSampling rate                            : 48.0 kHzFrame rate                               : 31.250 FPS (1536 SPF)Compression mode                         : LossyStream size                              : 318 MiB (10%)Title                                    : WEBDLLanguage                                 : ItalianService kind                             : Complete MainDefault                                  : YesForced                                   : NoAudio #2ID                                       : 3Format                                   : AC-3Format/Info                              : Audio Coding 3Commercial name                          : Dolby DigitalCodec ID                                 : A_AC3Duration                                 : 1 h 39 minBit rate mode                            : ConstantBit rate                                 : 448 kb/sChannel(s)                               : 6 channelsChannel layout                           : L R C LFE Ls RsSampling rate                            : 48.0 kHzFrame rate                               : 31.250 FPS (1536 SPF)Compression mode                         : LossyStream size                              : 318 MiB (10%)Title                                    : DTSLanguage                                 : FrenchService kind                             : Complete MainDefault                                  : NoForced                                   : NoMenu00:00:00.000                             : 01)00:00:00:00000:11:05.083                             : 02)00:11:05:08300:18:51.875                             : 03)00:18:51:87500:25:10.875                             : 04)00:25:10:87500:32:49.208                             : 05)00:32:49:20800:39:09.417                             : 06)00:39:09:41600:47:39.000                             : 07)00:47:39:00000:53:50.792                             : 000:53:50:79101:01:17.333                             : 09)01:01:17:33301:09:26.417                             : 10)01:09:26:41601:18:20.417                             : 11)01:18:20:41601:28:53.208                             : 12)01:28:53:208

Dimensione: 3.01 GB

Categoria: BDRip

ISCRIVETEVI AL FORUM

Presto ci saranno molte novità, registratevi gratuitamente al forum

Ricordiamo a tutti che su Cultura Digitale non sono presenti nessun file, questo torrent è di proprietà del Corsaro nero. pubblicato sul loro sito al seguente indirizzo: Un amore criminale-Tout nous separe (2017) ITA-FRE Ac3 5.1 BDRip 1080p H264 [ArMor] -

COLLEGAMENTO AL TORRENT

Importante: è un link con magnet, si dovrebbe aprire da solo. Se vi esce errore 404 nel vostro computer non è installato un programma per torrent o l’estensione che fa aprire i file magnet.

 Copiate questo link
magnet:?xt=urn:btih:64721da2a9dba8f51002be0e23252c42ad5365f6&dn=Un+amore+criminale-Tout+nous+separe+%282017%29+ITA-FRE+Ac3+5.1+BDRip+1080p+H264+%5BArMor%5D&tr=udp%3A%2F%2Ftracker.coppersurfer.tk%3A6969%2Fannounce

Per firefox usare questa estensione – Per Chrome usare questa estensione
Oppure usare Torxh web browser

Se i link risultassero non raggiungibili o bloccati a livello DNS

Seguite la guida Su Questo Articolo : GUIDA COME CAMBIARE DNS