Vampyres (2015).720p.H264.ita.eng.Ac35.1.sub.ita.engMIRCrew Torrent download

Ecco a voi il torrent Vampyres (2015).720p.H264.ita.eng.Ac35.1.sub.ita.engMIRCrew proveniente dagli archivi di Torrent

Lo staff di Cultura digitale al fine di promuovere la cultura condivide i contenuti presenti sul sito il corsaro nero.

Nome del Torrent: Vampyres (2015).720p.H264.ita.eng.Ac35.1.sub.ita.engMIRCrew

Descrizione del torrent: 1.59 GB

Dimensione: Vampyres (2015).720p.H264.ita.eng.Ac3-5.1.sub.ita.eng-MIRCrewClicca qua per ingrandire questa immagineNO FOUND ONLY ORIGINAL RELEASEMy release is always in double track audio italian and Original audiofor select it use VLC or dvd player homenot use wmp Vampyres (2015)Quality MIRCrew on HD 720p da 1,6 gbClicca qua per ingrandire questa immagineClicca qua per ingrandire questa immagine Clicca qua per ingrandire questa immagine  Genere: Horror Anno: 2015 Regia: Víctor Matellano Paese: SpagnaDurata: 76 MinClicca qua per ingrandire questa immagine    William Hurt: Professor John Robinson    Mimi Rogers: Maureen Robinson    Lacey Chabert: Penny Robinson    Heather Graham: Judy Robinson    Jack Johnson: Will Robinson    Gary Oldman: Dottor Zachary Smith    Matt LeBlanc: Maggiore Don West    Jared Harris: Will Robinson da grande    June Lockhart: Principal CartwrightClicca qua per ingrandire questa immagineDue vampire molto affascinanti seducono dei turisti in una villa nella campagna inglese, costringendoli ad orge di sesso e sangue. Ma l'arrivo di tre giovani turisti scombussolerà la routine delle vampire e una di loro si............Clicca qua per ingrandire questa immagineDeep in the rural English countryside, two tempting daughters of Erebus, the woeful wraith-like phantoms Fran and Miriam, prey on the innocent and the foolishly brave to tread alone.Clicca qua per ingrandire questa immagine   Clicca qua per ingrandire questa immagineClicca qua per ingrandire questa immagineGeneralUnique ID                                : 246002118096974620009667246741624464770 (0xB91248D9179DB88DBBACD14770142582)Complete name                            : Vampyres (2015).720p.ita.eng.sub.ita.eng-MIRCrewVampyres (2015).720p.ita.eng.sub.ita.eng-MIRCrew.mkvFormat                                   : MatroskaFormat version                           : Version 2File size                                : 1.59 GiBDuration                                 : 1h 21mnOverall bit rate                         : 2 780 KbpsEncoded date                             : UTC 2019-09-12 15:29:59Writing application                      : mkvmerge v5.8.0 ('No Sleep / Pillow' built on Sep  2 2012 15:37:04Writing library                          : Lavf54.63.100COMMENT                                  : mircrew-releasesVideoID                                       : 1Format                                   : AVCFormat/Info                              : Advanced Video CodecFormat profile                           : [email protected] settings, CABAC                   : YesFormat settings, ReFrames                : 2 framesCodec ID                                 : V_MPEG4/ISO/AVCDuration                                 : 1h 21mnBit rate                                 : 1 829 KbpsNominal bit rate                         : 2 000 KbpsWidth                                    : 1 280 pixelsHeight                                   : 544 pixelsDisplay aspect ratio                     : 2.35:1Frame rate mode                          : VariableFrame rate                               : 23.976 fpsColor space                              : YUVChroma subsampling                       : 4:2:0Bit depth                                : 8 bitsScan type                                : ProgressiveBits/(Pixel*Frame)                       : 0.110Stream size                              : 1.05 GiB (66%)Writing library                          : x264 core 130 r2273Encoding settings                        : cabac=1 / ref=2 / deblock=1:0:0 / analyse=0x1:0x131 / me=hex / subme=7 / psy=1 / psy_rd=1.00:0.00 / mixed_ref=0 / me_range=16 / chroma_me=1 / trellis=1 / 8x8dct=0 / cqm=0 / deadzone=21,11 / fast_pskip=1 / chroma_qp_offset=-2 / threads=9 / lookahead_threads=1 / sliced_threads=0 / nr=0 / decimate=1 / interlaced=0 / bluray_compat=0 / constrained_intra=0 / bframes=3 / b_pyramid=0 / b_adapt=1 / b_bias=0 / direct=3 / weightb=1 / open_gop=0 / weightp=2 / keyint=230 / keyint_min=23 / scenecut=40 / intra_refresh=0 / rc_lookahead=40 / rc=abr / mbtree=1 / bitrate=2000 / ratetol=1.0 / qcomp=0.60 / qpmin=10 / qpmax=69 / qpstep=4 / vbv_maxrate=24000 / vbv_bufsize=24000 / nal_hrd=none / ip_ratio=1.40 / aq=1:1.00Language                                 : ItalianDefault                                  : YesForced                                   : NoDURATION                                 : 01:18:54.730000000NUMBER_OF_FRAMES                         : 113520NUMBER_OF_BYTES                          : 2885731371_STATISTICS_WRITING_APP                  : mkvmerge v35.0.0 ('All The Love In The World' 64-bit_STATISTICS_WRITING_DATE_UTC             : 2019-08-14 01:14:12_STATISTICS_TAGS                         : BPS DURATION NUMBER_OF_FRAMES NUMBER_OF_BYTESAudio #1ID                                       : 2Format                                   : AC-3Format/Info                              : Audio Coding 3Mode extension                           : CM (complete main)Codec ID                                 : A_AC3Duration                                 : 1h 21mnBit rate mode                            : ConstantBit rate                                 : 448 KbpsChannel(s)                               : 6 channelsChannel positions                        : Front: L C R, Side: L R, LFESampling rate                            : 48.0 KHzBit depth                                : 16 bitsCompression mode                         : LossyDelay relative to video                  : -5msStream size                              : 262 MiB (16%)Title                                    : Ita Ac3 5.1Language                                 : ItalianDefault                                  : NoForced                                   : YesDURATION                                 : 01:21:48.928000000NUMBER_OF_FRAMES                         : 153404NUMBER_OF_BYTES                          : 274899968_STATISTICS_WRITING_APP                  : mkvmerge v35.0.0 ('All The Love In The World' 64-bit_STATISTICS_WRITING_DATE_UTC             : 2019-08-14 01:14:12_STATISTICS_TAGS                         : BPS DURATION NUMBER_OF_FRAMES NUMBER_OF_BYTESAudio #2ID                                       : 3Format                                   : AC-3Format/Info                              : Audio Coding 3Mode extension                           : CM (complete main)Codec ID                                 : A_AC3Duration                                 : 1h 21mnBit rate mode                            : ConstantBit rate                                 : 448 KbpsChannel(s)                               : 6 channelsChannel positions                        : Front: L C R, Side: L R, LFESampling rate                            : 48.0 KHzBit depth                                : 16 bitsCompression mode                         : LossyDelay relative to video                  : -5msStream size                              : 262 MiB (16%)Title                                    : Eng Ac3 5.1Language                                 : EnglishDefault                                  : NoForced                                   : NoDURATION                                 : 01:18:54.752000000NUMBER_OF_FRAMES                         : 443883NUMBER_OF_BYTES                          : 1069286300_STATISTICS_WRITING_APP                  : mkvmerge v35.0.0 ('All The Love In The World' 64-bit_STATISTICS_WRITING_DATE_UTC             : 2019-08-14 01:14:12_STATISTICS_TAGS                         : BPS DURATION NUMBER_OF_FRAMES NUMBER_OF_BYTES

Categoria: BDRip

ISCRIVETEVI AL FORUM

Presto ci saranno molte novità, registratevi gratuitamente al forum

Ricordiamo a tutti che su Cultura Digitale non sono presenti nessun file, questo torrent è di proprietà del Corsaro nero. pubblicato sul loro sito al seguente indirizzo: Vampyres (2015).720p.H264.ita.eng.Ac35.1.sub.ita.engMIRCrew

COLLEGAMENTO AL TORRENT

Importante: è un link con magnet, si dovrebbe aprire da solo. Se vi esce errore 404 nel vostro computer non è installato un programma per torrent o l’estensione che fa aprire i file magnet.

 Copiate questo link
magnet:?xt=urn:btih:2b6ce3e8101dc45c33ce454d230bbe028e60ea14&dn=Vampyres+%282015%29.720p.H264.ita.eng.Ac3-5.1.sub.ita.eng-MIRCrew&tr=udp%3A%2F%2Ftracker.coppersurfer.tk%3A6969%2Fannounce

Per firefox usare questa estensione – Per Chrome usare questa estensione
Oppure usare Torxh web browser

Se i link risultassero non raggiungibili o bloccati a livello DNS

Seguite la guida Su Questo Articolo : GUIDA COME CAMBIARE DNS