War of the worlds (2019) Stagione 1 Completa.720p.H264.ita.eng.Ac3-5.1.sub.ita.eng-MIRCrew – Torrent download

I Testi di tutte le canzoni del Festival di Sanremo 2020
TUTTE LE CANZONI DI SANREMO 2020

Ecco a voi il torrent War of the worlds (2019) Stagione 1 Completa.720p.H264.ita.eng.Ac3-5.1.sub.ita.eng-MIRCrew - proveniente dagli archivi di Torrent

Lo staff di Cultura digitale al fine di promuovere la cultura condivide i contenuti presenti sul sito il corsaro nero.

Nome del Torrent: War of the worlds (2019) Stagione 1 Completa.720p.H264.ita.eng.Ac3-5.1.sub.ita.eng-MIRCrew -

Descrizione del torrent: War of the worlds (2019) Season 1 Completa.720p.H264.ita.eng.Ac3-5.1.sub.ita.eng-MIRCrewClicca qua per ingrandire questa immagineNO FOUND ONLY ORIGINAL RELEASEMy release is always in double track audio italian and Original audiofor select it use VLC or dvd player homenot use wmp Paese Stati Uniti d'America, FranciaAnno 2019 – in produzioneFormato serie TVGenere drammatico, fantascienzaStagioni 1Episodi 8Durata 55 min (episodio) 1 Episode 1 Un nuovo mondo2 Episode 2 Sopravvivere 3 Episode 3 Nascondersi4 Episode 4 Superstite 5 Episode 5 La fonte6 Episode 6 Collegamenti 7 Episode 7 Ipotesi8 Episode 8 L'ultima occasioneClicca qua per ingrandire questa immagine War of the Worlds è una serie televisiva statunitense e francese, prodotta da Fox Networks Group e StudioCanal, in collaborazione con Urban Myth Films. La serie è stata scritta da Howard Overman e diretta da Gilles Coulier e Richard Clark, adattamento dell'omonimo romanzo di H.G. Wells è il terzo adattamento televisivo della suddetta opera. War of the Worlds is a television series produced by Fox Networks Group and StudioCanal-backed Urban Myth Films. The series is written by Howard Overman, and directed by Gilles Coulier and Richard Clark. The series is a loose adaptation of the H.G. Wells novel of the same name, and is the third television adaptation of the Wells' Martian invasion novel.Cast:    Gabriel Byrne: Bill Ward    Elizabeth McGovern: Helen Brown    Léa Drucker: Catherine Durand    Adel Bencherif: Mustafa Mokrani    Emilie de Preissac: Sophia Durand    Natasha Little: Sarah Gresham    Daisy Edgar Jones: Emily Gresham    Ty Tennant: Tom Gresham    Bayo Gbadamosi: Kariem Gat Wich Machar    Stephen Campbell Moore: Jonathon Gresham    Stéphane Caillard: Chloe Dumont    Aaron Heffernan: Ash DanielClicca qua per ingrandire questa immagine Clicca qua per ingrandire questa immagine Clicca qua per ingrandire questa immagine Clicca qua per ingrandire questa immagine Clicca qua per ingrandire questa immagineDati File:GeneralUnique ID                                : 25299180704022209146112579047950729204 (0x130871E976E2D4330CF470E93FE93FF4)Complete name                            : War of the worlds (2019) St 01 epi 01-08-1080p.ita.eng Ac3 5.1-MIRCrewWar.of.the.worlds.2019.s01e061080p-MIRCrew.mkvFormat                                   : MatroskaFormat version                           : Version 2File size                                : 893 MiBDuration                                 : 47mn 13sOverall bit rate                         : 2 642 KbpsMovie name                               : robbyrsEncoded date                             : UTC 2019-12-29 22:03:30Writing application                      : Lavf54.63.100Writing library                          : Lavf54.63.100COMMENT                                  : robbyrsCOPYRIGHT                                : robbyrsVideoID                                       : 1Format                                   : AVCFormat/Info                              : Advanced Video CodecFormat profile                           : [email protected] settings, CABAC                   : YesFormat settings, ReFrames                : 2 framesCodec ID                                 : V_MPEG4/ISO/AVCDuration                                 : 47mn 13sBit rate                                 : 1 900 KbpsWidth                                    : 1 280 pixelsHeight                                   : 528 pixelsDisplay aspect ratio                     : 2.40:1Frame rate mode                          : VariableFrame rate                               : 25.000 fpsColor space                              : YUVChroma subsampling                       : 4:2:0Bit depth                                : 8 bitsScan type                                : ProgressiveBits/(Pixel*Frame)                       : 0.112Stream size                              : 615 MiB (69%)Writing library                          : x264 core 130 r2273Encoding settings                        : cabac=1 / ref=2 / deblock=1:0:0 / analyse=0x1:0x131 / me=hex / subme=7 / psy=1 / psy_rd=1.00:0.00 / mixed_ref=0 / me_range=16 / chroma_me=1 / trellis=1 / 8x8dct=0 / cqm=0 / deadzone=21,11 / fast_pskip=1 / chroma_qp_offset=-2 / threads=9 / lookahead_threads=1 / sliced_threads=0 / nr=0 / decimate=1 / interlaced=0 / bluray_compat=0 / constrained_intra=0 / bframes=3 / b_pyramid=0 / b_adapt=1 / b_bias=0 / direct=3 / weightb=1 / open_gop=0 / weightp=2 / keyint=250 / keyint_min=25 / scenecut=40 / intra_refresh=0 / rc_lookahead=40 / rc=abr / mbtree=1 / bitrate=1900 / ratetol=1.0 / qcomp=0.60 / qpmin=10 / qpmax=69 / qpstep=4 / vbv_maxrate=24000 / vbv_bufsize=24000 / nal_hrd=none / ip_ratio=1.40 / aq=1:1.00Language                                 : ItalianDefault                                  : YesForced                                   : NoDURATION                                 : 00:47:13.400000000NUMBER_OF_FRAMES                         : 70835NUMBER_OF_BYTES                          : 6866468618_STATISTICS_WRITING_APP                  : mkvmerge v35.0.0 ('All The Love In The World' 64-bit_STATISTICS_WRITING_DATE_UTC             : 2019-12-10 02:54:25_STATISTICS_TAGS                         : BPS DURATION NUMBER_OF_FRAMES NUMBER_OF_BYTESAudio #1ID                                       : 2Format                                   : AC-3Format/Info                              : Audio Coding 3Mode extension                           : CM (complete main)Codec ID                                 : A_AC3Duration                                 : 47mn 13sBit rate mode                            : ConstantBit rate                                 : 384 KbpsChannel(s)                               : 6 channelsChannel positions                        : Front: L C R, Side: L R, LFESampling rate                            : 48.0 KHzBit depth                                : 16 bitsCompression mode                         : LossyDelay relative to video                  : 1mn 5sStream size                              : 130 MiB (15%)Language                                 : ItalianDefault                                  : YesForced                                   : YesDURATION                                 : 00:47:06.400000000NUMBER_OF_FRAMES                         : 88325NUMBER_OF_BYTES                          : 135667200_STATISTICS_WRITING_APP                  : mkvmerge v35.0.0 ('All The Love In The World' 64-bit_STATISTICS_WRITING_DATE_UTC             : 2019-12-10 02:54:25_STATISTICS_TAGS                         : BPS DURATION NUMBER_OF_FRAMES NUMBER_OF_BYTESAudio #2ID                                       : 3Format                                   : AC-3Format/Info                              : Audio Coding 3Mode extension                           : CM (complete main)Codec ID                                 : A_AC3Duration                                 : 47mn 13sBit rate mode                            : ConstantBit rate                                 : 384 KbpsChannel(s)                               : 6 channelsChannel positions                        : Front: L C R, Side: L R, LFESampling rate                            : 48.0 KHzBit depth                                : 16 bitsCompression mode                         : LossyDelay relative to video                  : 1mn 5sStream size                              : 130 MiB (15%)Language                                 : EnglishDefault                                  : NoForced                                   : NoDURATION                                 : 00:47:06.401000000NUMBER_OF_FRAMES                         : 264975NUMBER_OF_BYTES                          : 533129700_STATISTICS_WRITING_APP                  : mkvmerge v35.0.0 ('All The Love In The World' 64-bit_STATISTICS_WRITING_DATE_UTC             : 2019-12-10 02:54:25_STATISTICS_TAGS                         : BPS DURATION NUMBER_OF_FRAMES NUMBER_OF_BYTESMenu00:00:00.000                             : :Chapter 0100:04:24.040                             : :Chapter 0200:24:15.600                             : :Chapter 0300:46:02.280                             : :Chapter 04

Dimensione: 8.37 GB

Categoria: SerieTv

ISCRIVETEVI AL FORUM

Presto ci saranno molte novità, registratevi gratuitamente al forum

Ricordiamo a tutti che su Cultura Digitale non sono presenti nessun file, questo torrent è di proprietà del Corsaro nero. pubblicato sul loro sito al seguente indirizzo: War of the worlds (2019) Stagione 1 Completa.720p.H264.ita.eng.Ac3-5.1.sub.ita.eng-MIRCrew -

COLLEGAMENTO AL TORRENT

Importante: è un link con magnet, si dovrebbe aprire da solo. Se vi esce errore 404 nel vostro computer non è installato un programma per torrent o l’estensione che fa aprire i file magnet.

 Copiate questo link
magnet:?xt=urn:btih:2b7b33d6b797b8ae1cbba688c845395c21f701e3&dn=War+of+the+worlds+%282019%29+Stagione+1+Completa.720p.H264.ita.eng.Ac3-5.1.sub.ita.eng-MIRCrew&tr=udp%3A%2F%2Ftracker.coppersurfer.tk%3A6969%2Fannounce

Per firefox usare questa estensione – Per Chrome usare questa estensione
Oppure usare Torxh web browser

Se i link risultassero non raggiungibili o bloccati a livello DNS

Seguite la guida Su Questo Articolo : GUIDA COME CAMBIARE DNS 

I Testi di tutte le canzoni del Festival di Sanremo 2020
TUTTE LE CANZONI DI SANREMO 2020