Westworld.S03E03-04.1080p.WEBMux.HEVC.ITA.ENG.DD5.1.x265-BlackBit – Torrent download

Ecco a voi il torrent Westworld.S03E03-04.1080p.WEBMux.HEVC.ITA.ENG.DD5.1.x265-BlackBit - proveniente dagli archivi di Torrent

Lo staff di Cultura digitale al fine di promuovere la cultura condivide i contenuti presenti sul sito il corsaro nero.

Nome del Torrent: Westworld.S03E03-04.1080p.WEBMux.HEVC.ITA.ENG.DD5.1.x265-BlackBit -

Descrizione del torrent: Clicca qua per ingrandire questa immagine[size=36pt]Westworld - Stagione 3[/size]Clicca qua per ingrandire questa immagineTitolo originale: WestworldPaese: Stati Uniti d'AmericaAnno: 2020Formato: serie TVGenere:    drammatico, fantascienza, thriller, azione, avventura, westernEpisodi: 8Durata: 57-91 min (episodio)Ideatore: Jonathan Nolan,Lisa JoyClicca qua per ingrandire questa immagineIn seguito alla morte di Robert Ford e di numerosi ospiti per mano di Dolores, la rivoluzione degli androidi prosegue incontrastata. Dolores, con il fedele Teddy e la pericolosa Armistice continua ad uccidere i visitatori, essendo ormai consapevole di aver subito violenze e soprusi fin dall'apertura del parco ed intenzionata a vendicarsi.Nel frattempo Bernard e Charlotte riescono a fuggire con un piccolo gruppo di ospiti, ma rimangono presto soli. Charlotte conduce dunque Bernard in un bunker sotterraneo nella speranza di contattare il mondo esterno e di chiamare i soccorsi. Clicca qua per ingrandire questa immagine[spoiler][/spoiler]Clicca qua per ingrandire questa immagine[spoiler]GeneralUnique ID : 220626185290880625815380853814067608132 (0xA5FB0EC3E7846B9BEE6EEAE196D63A44)Complete name : C:UsersAdministratorVideosWestworld S03Ep 01Westworld.S03E01.Parce.Domine.1080p.WEBMux.HEVC.ITA.ENG.DD5.1.x265-BlackBit.mkvFormat : MatroskaFormat version : Version 4File size : 2.19 GiBDuration : 1 h 11 minOverall bit rate : 4 362 kb/sEncoded date : UTC 2020-05-16 20:51:18Writing application : mkvmerge v46.0.0 ('No Deeper Escape' 64-bitWriting library : libebml v1.3.10 + libmatroska v1.5.2VideoID : 1Format : HEVCFormat/Info : High Efficiency Video CodingFormat profile : Main [email protected]@MainCodec ID : V_MPEGH/ISO/HEVCDuration : 1 h 11 minBit rate : 3 080 kb/sWidth : 1 920 pixelsHeight : 1 080 pixelsDisplay aspect ratio : 16:9Frame rate mode : ConstantFrame rate : 23.976 (24000/1001) FPSColor space : YUVChroma subsampling : 4:2:0Bit depth : 10 bitsBits/(Pixel*Frame) : 0.062Stream size : 1.54 GiB (71%)Writing library : x265 3.3+2-dd2464df2f40:[Linux][GCC 8.3.0][64 bit] 10bitEncoding settings : cpuid=1111039 / frame-threads=3 / numa-pools=8 / wpp / no-pmode / no-pme / no-psnr / no-ssim / log-level=2 / input-csp=1 / input-res=1920x1080 / interlace=0 / total-frames=0 / level-idc=0 / high-tier=1 / uhd-bd=0 / ref=4 / no-allow-non-conformance / no-repeat-headers / annexb / no-aud / no-hrd / info / hash=0 / no-temporal-layers / open-gop / min-keyint=23 / keyint=250 / gop-lookahead=0 / bframes=8 / b-adapt=2 / b-pyramid / bframe-bias=0 / rc-lookahead=80 / lookahead-slices=4 / scenecut=40 / hist-scenecut=0 / radl=0 / no-splice / no-intra-refresh / ctu=64 / min-cu-size=8 / rect / no-amp / max-tu-size=32 / tu-inter-depth=1 / tu-intra-depth=1 / limit-tu=0 / rdoq-level=2 / dynamic-rd=0.00 / no-ssim-rd / signhide / no-tskip / nr-intra=0 / nr-inter=0 / no-constrained-intra / no-strong-intra-smoothing / max-merge=3 / limit-refs=3 / limit-modes / me=3 / subme=4 / merange=57 / temporal-mvp / no-frame-dup / no-hme / weightp / no-weightb / no-analyze-src-pics / deblock=-1:-1 / sao / no-sao-non-deblock / rd=4 / selective-sao=3 / no-early-skip / rskip / no-fast-intra / no-tskip-fast / no-cu-lossless / no-b-intra / no-splitrd-skip / rdpenalty=0 / psy-rd=2.00 / psy-rdoq=1.00 / no-rd-refine / no-lossless / cbqpoffs=0 / crqpoffs=0 / rc=crf / crf=19.5 / qcomp=0.60 / qpstep=4 / stats-write=0 / stats-read=0 / ipratio=1.40 / pbratio=1.30 / aq-mode=4 / aq-strength=1.00 / cutree / zone-count=0 / no-strict-cbr / qg-size=32 / no-rc-grain / qpmax=69 / qpmin=0 / no-const-vbv / sar=1 / overscan=0 / videoformat=5 / range=0 / colorprim=2 / transfer=2 / colormatrix=2 / chromaloc=0 / display-window=0 / cll=0,0 / min-luma=0 / max-luma=1023 / log2-max-poc-lsb=8 / vui-timing-info / vui-hrd-info / slices=1 / no-opt-qp-pps / no-opt-ref-list-length-pps / no-multi-pass-opt-rps / scenecut-bias=0.05 / hist-threshold=0.01 / no-opt-cu-delta-qp / no-aq-motion / no-hdr10 / no-hdr10-opt / no-dhdr10-opt / no-idr-recovery-sei / analysis-reuse-level=0 / analysis-save-reuse-level=0 / analysis-load-reuse-level=0 / scale-factor=0 / refine-intra=0 / refine-inter=0 / refine-mv=1 / refine-ctu-distortion=0 / no-limit-sao / ctu-info=0 / no-lowpass-dct / refine-analysis-type=0 / copy-pic=1 / max-ausize-factor=1.0 / no-dynamic-refine / no-single-sei / no-hevc-aq / no-svt / no-field / qp-adaptation-range=1.00 / no-scenecut-aware-qpconformance-window-offsets / right=0 / bottom=0Default : YesForced : YesColor range : LimitedAudio #1ID : 2Format : AC-3Format/Info : Audio Coding 3Commercial name : Dolby DigitalCodec ID : A_AC3Duration : 1 h 11 minBit rate mode : ConstantBit rate : 640 kb/sChannel(s) : 6 channelsChannel layout : L R C LFE Ls RsSampling rate : 48.0 kHzFrame rate : 31.250 FPS (1536 SPF)Compression mode : LossyStream size : 329 MiB (15%)Language : ItalianService kind : Complete MainDefault : YesForced : YesAudio #2ID : 3Format : E-AC-3Format/Info : Enhanced AC-3Commercial name : Dolby Digital PlusCodec ID : A_EAC3Duration : 1 h 11 minBit rate mode : ConstantBit rate : 640 kb/sChannel(s) : 6 channelsChannel layout : L R C LFE Ls RsSampling rate : 48.0 kHzFrame rate : 31.250 FPS (1536 SPF)Compression mode : LossyDelay relative to video : 20 msStream size : 329 MiB (15%)Language : EnglishService kind : Complete MainDefault : NoForced : NoText #1ID : 4Format : UTF-8Codec ID : S_TEXT/UTF8Codec ID/Info : UTF-8 Plain TextDuration : 1 h 11 minBit rate : 5 b/sCount of elements : 75Stream size : 2.70 KiB (0%)Language : ItalianDefault : YesForced : YesText #2ID : 5Format : UTF-8Codec ID : S_TEXT/UTF8Codec ID/Info : UTF-8 Plain TextDuration : 1 h 11 minBit rate : 49 b/sCount of elements : 801Stream size : 26.2 KiB (0%)Language : ItalianDefault : NoForced : NoText #3ID : 6Format : UTF-8Codec ID : S_TEXT/UTF8Codec ID/Info : UTF-8 Plain TextDuration : 1 h 11 minBit rate : 51 b/sCount of elements : 872Stream size : 27.1 KiB (0%)Title : SDHLanguage : EnglishDefault : NoForced : No[/spoiler]

Dimensione: 3.87 GB

Categoria: SerieTv

ISCRIVETEVI AL FORUM

Presto ci saranno molte novità, registratevi gratuitamente al forum

Ricordiamo a tutti che su Cultura Digitale non sono presenti nessun file, questo torrent è di proprietà del Corsaro nero. pubblicato sul loro sito al seguente indirizzo: Westworld.S03E03-04.1080p.WEBMux.HEVC.ITA.ENG.DD5.1.x265-BlackBit -

COLLEGAMENTO AL TORRENT

Importante: è un link con magnet, si dovrebbe aprire da solo. Se vi esce errore 404 nel vostro computer non è installato un programma per torrent o l’estensione che fa aprire i file magnet.

 Copiate questo link
magnet:?xt=urn:btih:d6d9bf705994d5e715577286e6657f0d2821d8a2&dn=Westworld.S03E03-04.1080p.WEBMux.HEVC.ITA.ENG.DD5.1.x265-BlackBit&tr=udp%3A%2F%2Ftracker.coppersurfer.tk%3A6969%2Fannounce

Per firefox usare questa estensione – Per Chrome usare questa estensione
Oppure usare Torxh web browser

Se i link risultassero non raggiungibili o bloccati a livello DNS

Seguite la guida Su Questo Articolo : GUIDA COME CAMBIARE DNS