Wolf Call Minaccia in alto mare (2019).720p.H264.ita.eng.Ac3-5.1.sub.eng-MIRCrew – Torrent download

Ecco a voi il torrent Wolf Call Minaccia in alto mare (2019).720p.H264.ita.eng.Ac3-5.1.sub.eng-MIRCrew - proveniente dagli archivi di Torrent

Lo staff di Cultura digitale al fine di promuovere la cultura condivide i contenuti presenti sul sito il corsaro nero.

Nome del Torrent: Wolf Call Minaccia in alto mare (2019).720p.H264.ita.eng.Ac3-5.1.sub.eng-MIRCrew -

Descrizione del torrent: Le chant du loup - Wolf Call - Minaccia in alto mare (2019).720p.H264.ita.eng.Ac3-5.1.sub.eng-MIRCrewClicca qua per ingrandire questa immagineNO FOUND ONLY ORIGINAL RELEASEMy release is always in double track audio italian and Original audiofor select it use VLC or dvd player homenot use wmpWolf Call - Minaccia in alto mare - Le chant du loup (2019)Quality MIRCrew on HD 720p da 2,1 gbClicca qua per ingrandire questa immagine [img]hhttps://s19.postimg.cc/bgh0za7kj/banner_scheda.gif[/img]Titolo originale Le chant du loupLingua originale francesePaese di produzione FranciaAnno 2019Durata 115 minGenere drammatico, azioneRegia Antonin BaudrySceneggiatura Antonin Baudry    François Civil: Chanteraide    Omar Sy: D'Orsi    Mathieu Kassovitz: ALFOST[1]    Reda Kateb: Grandchamp    Paula Beer: Diane    Alexis Michalik: Secondo SNLE-B2R    Jean-Yves Berteloot: Comandante CIRA    Damien Bonnard: Ufficiale di navigazione SNLEIl Titano, un sottomarino nucleare francese, è in missione al largo della costa siriana comandato al comandante Grandchamp e dal suo assistente D'Orsi. Mentre una fregata iraniana inizia a inseguirli, l'orecchio d'oro del sottomarino, Chanteraide, capta un suono dubbio ma non lo identifica esattamenteThe plot of the film revolves around a young submariner who has a unique hearing. He works as an acoustics and can recognize any sound. The fate of many people depends on his ability, and a mistake threatens the life of the entire crew of the submarine. Clicca qua per ingrandire questa immagine Clicca qua per ingrandire questa immagine Clicca qua per ingrandire questa immagine Clicca qua per ingrandire questa immagine Clicca qua per ingrandire questa immagineGeneralComplete name                            : Wolf Call - Minaccia in alto mare (2019).720p.H264.ita.eng.sub.eng-MIRCrewWolf Call - Minaccia in alto mare (2019).720p.H264.ita.eng.sub.eng-MIRCrew.mkvFormat                                   : MatroskaFormat version                           : Version 2File size                                : 2.19 GiBDuration                                 : 1h 55mnOverall bit rate                         : 2 712 KbpsMovie name                               : robbyrsEncoded date                             : UTC 2019-12-20T08:18:48ZWriting application                      : mkvmerge v5.8.0 ('No Sleep / Pillow' built on Sep  2 2012 15:37:04Writing library                          : Lavf55.12.0VideoID                                       : 1Format                                   : AVCFormat/Info                              : Advanced Video CodecFormat profile                           : [email protected] settings, CABAC                   : YesFormat settings, ReFrames                : 4 framesCodec ID                                 : V_MPEG4/ISO/AVCDuration                                 : 1h 55mnBit rate                                 : 1 900 KbpsWidth                                    : 1 280 pixelsHeight                                   : 528 pixelsDisplay aspect ratio                     : 2.40:1Frame rate                               : 24.000 fpsColor space                              : YUVChroma subsampling                       : 4:2:0Bit depth                                : 8 bitsScan type                                : ProgressiveBits/(Pixel*Frame)                       : 0.117Stream size                              : 1.47 GiB (67%)Title                                    : robbyrsWriting library                          : x264 core 142 r2479 dd79a61Encoding settings                        : cabac=1 / ref=1 / deblock=1:0:0 / analyse=0x1:0x111 / me=hex / subme=2 / psy=1 / psy_rd=1.00:0.00 / mixed_ref=0 / me_range=16 / chroma_me=1 / trellis=0 / 8x8dct=0 / cqm=0 / deadzone=21,11 / fast_pskip=1 / chroma_qp_offset=0 / threads=9 / lookahead_threads=3 / sliced_threads=0 / nr=0 / decimate=1 / interlaced=0 / bluray_compat=0 / constrained_intra=0 / bframes=3 / b_pyramid=2 / b_adapt=1 / b_bias=0 / direct=1 / weightb=1 / open_gop=0 / weightp=1 / keyint=240 / keyint_min=24 / scenecut=40 / intra_refresh=0 / rc_lookahead=10 / rc=abr / mbtree=1 / bitrate=1900 / ratetol=1.0 / qcomp=0.60 / qpmin=0 / qpmax=69 / qpstep=4 / vbv_maxrate=50000 / vbv_bufsize=62500 / nal_hrd=none / filler=0 / ip_ratio=1.40 / aq=1:1.00Language                                 : ItalianDefault                                  : YesForced                                   : NoColor primaries                          : BT.709-5, BT.1361, IEC 61966-2-4, SMPTE RP177Transfer characteristics                 : BT.709-5, BT.1361Matrix coefficients                      : BT.709-5, BT.1361, IEC 61966-2-4 709, SMPTE RP177Audio #1ID                                       : 2Format                                   : AC-3Format/Info                              : Audio Coding 3Mode extension                           : CM (complete main)Codec ID                                 : A_AC3Duration                                 : 1h 55mnBit rate mode                            : ConstantBit rate                                 : 448 KbpsChannel(s)                               : 6 channelsChannel positions                        : Front: L C R, Side: L R, LFESampling rate                            : 48.0 KHzBit depth                                : 16 bitsCompression mode                         : LossyDelay relative to video                  : -5msStream size                              : 370 MiB (17%)Title                                    : Ita Ac3 5.1Language                                 : ItalianDefault                                  : YesForced                                   : NoAudio #2ID                                       : 3Format                                   : AC-3Format/Info                              : Audio Coding 3Mode extension                           : CM (complete main)Codec ID                                 : A_AC3Duration                                 : 1h 55mnBit rate mode                            : ConstantBit rate                                 : 384 KbpsChannel(s)                               : 6 channelsChannel positions                        : Front: L C R, Side: L R, LFESampling rate                            : 48.0 KHzBit depth                                : 16 bitsCompression mode                         : LossyDelay relative to video                  : -5msStream size                              : 317 MiB (14%)Title                                    : Eng Ac3 5.1Language                                 : EnglishDefault                                  : NoForced                                   : No

Dimensione: 2.19 GB

Categoria: BDRip

ISCRIVETEVI AL FORUM

Presto ci saranno molte novità, registratevi gratuitamente al forum

Ricordiamo a tutti che su Cultura Digitale non sono presenti nessun file, questo torrent è di proprietà del Corsaro nero. pubblicato sul loro sito al seguente indirizzo: Wolf Call Minaccia in alto mare (2019).720p.H264.ita.eng.Ac3-5.1.sub.eng-MIRCrew -

COLLEGAMENTO AL TORRENT

Importante: è un link con magnet, si dovrebbe aprire da solo. Se vi esce errore 404 nel vostro computer non è installato un programma per torrent o l’estensione che fa aprire i file magnet.

 Copiate questo link
magnet:?xt=urn:btih:05d4916c53f5db1acd9d45212fc8caeae2682828&dn=Wolf+Call+-+Minaccia+in+alto+mare+%282019%29.720p.H264.ita.eng.Ac3-5.1.sub.eng-MIRCrew&tr=udp%3A%2F%2Ftracker.coppersurfer.tk%3A6969%2Fannounce

Per firefox usare questa estensione – Per Chrome usare questa estensione
Oppure usare Torxh web browser

Se i link risultassero non raggiungibili o bloccati a livello DNS

Seguite la guida Su Questo Articolo : GUIDA COME CAMBIARE DNS