– World War Z (2013).1080p.H264.ita.eng.Ac3-5.1.sub.ita.eng-MIRCrew – Torrent

Ecco a voi il torrent - World War Z (2013).1080p.H264.ita.eng.Ac3-5.1.sub.ita.eng-MIRCrew - proveniente dagli archivi di Torrent

Lo staff di Cultura digitale al fine di promuovere la cultura condivide i contenuti presenti sul sito il corsaro nero.

Nome del Torrent: - World War Z (2013).1080p.H264.ita.eng.Ac3-5.1.sub.ita.eng-MIRCrew -

Descrizione del torrent: World War Z (2013).1080p.H264.ita.eng.Ac3-5.1.sub.ita.eng-MIRCrewNO FOUND ONLY ORIGINAL RELEASEMy release is always in double track audio italian and Original audiofor select it use VLC or dvd player homenot use wmp World War Z (2013)Quality MIRCrew on HD 720p da 2,6 gb Titolo originale World War ZLingua originale inglese, spagnolo, arabo, ebraicoPaese di produzione Stati Uniti d'America, MaltaAnno 2013Durata 116 minAudio Dolby Digital, SDDSGenere azione, thriller, drammatico, orroreRegia Marc ForsterSoggetto Max Brooks (romanzo)Sceneggiatura Damon Lindelof, Matthew Michael Carnahan, Drew Goddard, J. Michael Straczynski Brad Pitt: Gerry Lane Mireille Enos: Karen Lane Daniella Kertesz: Segen James Badge Dale: Capitano Speke David Morse: Gunther Haffner Fana Mokoena: Thierry Umutoni David Andrews: Capitano Mullenaro Sterling Jerins: Constance Lane Abigail Hargrove: Rachel Lane Peter Capaldi: Dottore OMS Pierfrancesco Favino: Dottore OMS Ruth Negga: Dottore OMS Moritz Bleibtreu: Dottore OMS Michiel Huisman: Ellis Ludi Boeken: Jurgen Warmbrunn Grégory Fitoussi: Pilota aereo da trasporto Matthew Fox: USAF PararescueQuella che per Gerry Lane e famiglia sembra una giornata come le altre si rivela ben presto essere l'inizio di una tragedia su scala mondiale. Una terribile infezione che rende gli esseri umani simili a zombie si scatena a Filadelfia e nel resto del globo. Tutti gli uomini, se morsi da uno zombie, vengono a contatto con il virus e in breve tempo si trasformano a loro volta in zombie, divenendo creature incredibilmente veloci ed estremamente feroci nei confronti dei non infetti Former United Nations employee Gerry Lane traverses the world in a race against time to stop the Zombie pandemic that is toppling armies and governments, and threatening to destroy humanity itself. GeneralComplete name : World War Z (2013).1080p.H264.ita.eng.sub.ita.eng-MIRCrewWorld War Z (2013).1080p.H264.ita.eng.sub.ita.eng-MIRCrew.mkvFormat : MatroskaFormat version : Version 2File size : 2.63 GiBDuration : 1h 56mnOverall bit rate : 3 241 KbpsMovie name : MIRCrewEncoded date : UTC 2019-09-29 13:37:49Writing application : mkvmerge v5.8.0 ('No Sleep / Pillow' built on Sep 2 2012 15:37:04Writing library : libebml v1.2.3 + libmatroska v1.3.0DURATION : 01:56:00.620000000NUMBER_OF_FRAMES : 166888NUMBER_OF_BYTES : 2038998344_STATISTICS_WRITING_APP : mkvmerge v7.1.0 ('Good Love' 32bit built on Jul 27 2014 12:59:18_STATISTICS_WRITING_DATE_UTC : 2019-02-05 12:19:41_STATISTICS_TAGS : BPS DURATION NUMBER_OF_FRAMES NUMBER_OF_BYTESVideoID : 1Format : AVCFormat/Info : Advanced Video CodecFormat profile : [email protected] settings, CABAC : YesFormat settings, ReFrames : 4 framesCodec ID : V_MPEG4/ISO/AVCDuration : 1h 56mnBit rate : 2 344 KbpsWidth : 1 920 pixelsHeight : 800 pixelsDisplay aspect ratio : 2.40:1Frame rate : 23.976 fpsColor space : YUVChroma subsampling : 4:2:0Bit depth : 8 bitsScan type : ProgressiveBits/(Pixel*Frame) : 0.064Stream size : 1.85 GiB (70%)Title : mircrew-releasesWriting library : x264 core 157 r2935 545de2fEncoding settings : cabac=1 / ref=1 / deblock=1:0:0 / analyse=0x3:0x113 / me=hex / subme=2 / psy=1 / psy_rd=1.00:0.00 / mixed_ref=0 / me_range=16 / chroma_me=1 / trellis=0 / 8x8dct=1 / cqm=0 / deadzone=21,11 / fast_pskip=1 / chroma_qp_offset=0 / threads=25 / lookahead_threads=6 / sliced_threads=0 / nr=0 / decimate=1 / interlaced=0 / bluray_compat=0 / constrained_intra=0 / bframes=3 / b_pyramid=2 / b_adapt=1 / b_bias=0 / direct=1 / weightb=1 / open_gop=0 / weightp=1 / keyint=240 / keyint_min=23 / scenecut=40 / intra_refresh=0 / rc_lookahead=10 / rc=2pass / mbtree=1 / bitrate=2344 / ratetol=1.0 / qcomp=0.60 / qpmin=0 / qpmax=69 / qpstep=4 / cplxblur=20.0 / qblur=0.5 / ip_ratio=1.40 / aq=1:1.00Language : ItalianDefault : YesForced : NoAudio #1ID : 2Format : AC-3Format/Info : Audio Coding 3Mode extension : CM (complete main)Codec ID : A_AC3Duration : 1h 56mnBit rate mode : ConstantBit rate : 448 KbpsChannel(s) : 6 channelsChannel positions : Front: L C R, Side: L R, LFESampling rate : 48.0 KHzBit depth : 16 bitsCompression mode : LossyStream size : 372 MiB (14%)Title : Ita Ac3 5.1Language : ItalianDefault : YesForced : NoAudio #2ID : 3Format : AC-3Format/Info : Audio Coding 3Mode extension : CM (complete main)Codec ID : A_AC3Duration : 1h 56mnBit rate mode : ConstantBit rate : 448 KbpsChannel(s) : 6 channelsChannel positions : Front: L C R, Side: L R, LFESampling rate : 48.0 KHzBit depth : 16 bitsCompression mode : LossyStream size : 372 MiB (14%)Title : Eng Ac3 5.1Language : EnglishDefault : NoForced : No

Dimensione: 2.63 GB

Categoria: BDRip

ISCRIVETEVI AL FORUM

Presto ci saranno molte novità, registratevi gratuitamente al forum

Ricordiamo a tutti che su Cultura Digitale non sono presenti nessun file, questo torrent è di proprietà del Corsaro nero. pubblicato sul loro sito al seguente indirizzo: - World War Z (2013).1080p.H264.ita.eng.Ac3-5.1.sub.ita.eng-MIRCrew -

COLLEGAMENTO AL TORRENT

Importante: è un link con magnet, si dovrebbe aprire da solo. Se vi esce errore 404 nel vostro computer non è installato un programma per torrent o l’estensione che fa aprire i file magnet.

 Copiate questo link
magnet:?xt=urn:btih:efcf3f0b05389823b63e5f885a0e23744805080f&dn=World+War+Z+%282013%29.1080p.H264.ita.eng.Ac3-5.1.sub.ita.eng-MIRCrew&tr=udp%3A%2F%2Ftracker.coppersurfer.tk%3A6969%2Fannounce

Per firefox usare questa estensione – Per Chrome usare questa estensione
Oppure usare Torxh web browser

Se i link risultassero non raggiungibili o bloccati a livello DNS

Seguite la guida Su Questo Articolo : GUIDA COME CAMBIARE DNS